<?xml version="1.0" standalone="no"?>
<!DOCTYPE svg PUBLIC "-//W3C//DTD SVG 1.1//EN" "http://www.w3.org/Graphics/SVG/1.1/DTD/svg11.dtd" >
<svg xmlns="http://www.w3.org/2000/svg" xmlns:xlink="http://www.w3.org/1999/xlink" version="1.1">
<metadata>
Created by FontForge 20201107 at Fri Mar 10 09:35:15 2023
 By 
Copyright (c) 2023, Mujahid Al-Fikri. All rights reserved.
</metadata>
<defs>
<font id="HulbertHopperDisplay" horiz-adv-x="0" >
  <font-face 
    font-family="Hulbert Hopper Display"
    font-weight="400"
    font-stretch="normal"
    units-per-em="1000"
    panose-1="2 0 5 3 0 0 0 0 0 0"
    ascent="800"
    descent="-200"
    x-height="700"
    cap-height="700"
    bbox="-6 -172 1152 988"
    underline-thickness="50"
    underline-position="-100"
    unicode-range="U+0001-00FF"
  />
<missing-glyph horiz-adv-x="364" 
d="M33 0v666h265v-666h-265zM66 33h199v600h-199v-600z" />
    <glyph glyph-name=".notdef" horiz-adv-x="364" 
d="M33 0v666h265v-666h-265zM66 33h199v600h-199v-600z" />
    <glyph glyph-name="uni0000" 
 />
    <glyph glyph-name="uni0000" 
 />
    <glyph glyph-name="uni000D" unicode="&#xd;" 
 />
    <glyph glyph-name="uni0001" 
 />
    <glyph glyph-name="uni0002" 
 />
    <glyph glyph-name="uni0003" 
 />
    <glyph glyph-name="uni0004" 
 />
    <glyph glyph-name="uni0005" 
 />
    <glyph glyph-name="uni0006" 
 />
    <glyph glyph-name="uni0007" 
 />
    <glyph glyph-name="uni0008" 
 />
    <glyph glyph-name="uni0009" unicode="&#x9;" 
 />
    <glyph glyph-name="uni000A" unicode="&#xa;" 
 />
    <glyph glyph-name="uni000B" 
 />
    <glyph glyph-name="uni000C" 
 />
    <glyph glyph-name="uni000E" 
 />
    <glyph glyph-name="uni000F" 
 />
    <glyph glyph-name="uni0010" 
 />
    <glyph glyph-name="uni0011" 
 />
    <glyph glyph-name="uni0012" 
 />
    <glyph glyph-name="uni0013" 
 />
    <glyph glyph-name="uni0014" 
 />
    <glyph glyph-name="uni0015" 
 />
    <glyph glyph-name="uni0016" 
 />
    <glyph glyph-name="uni0017" 
 />
    <glyph glyph-name="uni0018" 
 />
    <glyph glyph-name="uni0019" 
 />
    <glyph glyph-name="uni001A" 
 />
    <glyph glyph-name="uni001B" 
 />
    <glyph glyph-name="uni001C" 
 />
    <glyph glyph-name="uni001D" 
 />
    <glyph glyph-name="uni001E" 
 />
    <glyph glyph-name="uni001F" 
 />
    <glyph glyph-name="space" unicode=" " horiz-adv-x="400" 
 />
    <glyph glyph-name="exclam" unicode="!" horiz-adv-x="311" 
d="M230 75q0 -31 -21.5 -53t-52.5 -22t-53 22t-22 53t22 52.5t53 21.5t52.5 -21.5t21.5 -52.5zM173 205h-35l-6 15t-13.5 44t-17 72.5t-14 99.5t-6.5 126q0 57 -15.5 91.5t-40.5 34.5l2 12q62 -7 129 -7q29 0 61.5 1.5t49.5 3.5l17 2l3 -12q-25 0 -41 -34.5t-16 -91.5
q0 -65 -5.5 -125.5t-14 -100.5t-17 -71t-14.5 -46z" />
    <glyph glyph-name="quotedbl" unicode="&#x22;" horiz-adv-x="363" 
d="M105 500h-20q-4 3 -9.5 11t-14.5 40.5t-9 74.5q0 67 -27 67l1 12q31 -4 69 -4l68 4l1 -12q-27 0 -27 -67q0 -42 -8 -73.5t-16 -42.5zM278 500h-20q-3 3 -8.5 11t-14.5 40.5t-9 74.5q0 67 -27 67l1 12q30 -4 68 -4q17 0 34 1t26 2l9 1l1 -12q-27 0 -27 -67
q-1 -90 -33 -126z" />
    <glyph glyph-name="numbersign" unicode="#" horiz-adv-x="600" 
d="M461 569h38l-38 -105h114l-12 -34h-114l-55 -152h114l-12 -35h-115l-37 -105h-38l37 105h-166l-37 -105h-38l37 105h-114l13 35h114l55 152h-115l13 34h114l38 105h38l-38 -105h166zM411 430h-166l-55 -152h166z" />
    <glyph glyph-name="dollar" unicode="$" horiz-adv-x="706" 
d="M377 777h35v-75q47 -5 88.5 -19.5t72.5 -25.5t59 -11q-5 -5 -11 -14q-31 -43 -55.5 -93t-34.5 -78l-9 -28l-12 5q14 38 14 75q0 55 -29.5 95.5t-82.5 55.5v-233q31 -17 48 -26t46 -26.5t45 -30t37 -31.5t32 -37t18.5 -40t7.5 -46q0 -90 -63 -137.5t-171 -58.5v-85h-35v83
q-17 -1 -35 -1h-13v-82h-35v84q-51 4 -95.5 18.5t-77.5 26.5t-61 12q4 6 10 14q31 44 54 92t30 75l7 27l12 -5q-14 -39 -14 -75q0 -59 37 -99.5t98 -49.5v257q-40 22 -64 36t-56.5 37t-50.5 43.5t-31.5 48.5t-13.5 58q0 80 56.5 129t159.5 60v75h35v-72h23h25v72zM329 271
v-241h1q26 0 47 3v211q-19 12 -48 27zM412 222v-182q70 21 70 84q0 49 -70 98zM329 476q19 -11 48 -27v221h-17q-17 0 -31 -2v-192zM294 500v157q-52 -24 -52 -79q0 -39 52 -78z" />
    <glyph glyph-name="percent" unicode="%" horiz-adv-x="572" 
d="M420 291q-64 0 -64 -137.5t64 -137.5t64 137.5t-64 137.5zM420 306q61 0 94.5 -40t33.5 -112t-33.5 -112.5t-94.5 -40.5t-94.5 40.5t-33.5 112.5t33.5 112t94.5 40zM153 684q-64 0 -64 -138t64 -138t64 138t-64 138zM153 699q61 0 94.5 -40.5t33.5 -112.5t-33.5 -112.5
t-94.5 -40.5t-94.5 40.5t-33.5 112.5t33.5 112.5t94.5 40.5zM519 715l29 -20l-494 -708l-29 20z" />
    <glyph glyph-name="ampersand" unicode="&#x26;" horiz-adv-x="763" 
d="M343 700q46 0 88 -14.5t78 -29.5t67 -15q-5 -5 -11 -14q-67 -95 -74 -140l-11 5q10 27 10 54q0 52 -37 85.5t-101 33.5q-114 0 -114 -108q0 -39 17.5 -66t46.5 -43t59.5 -28t64.5 -28t53 -36l-16 -27q-5 5 -15 12.5t-41 20.5t-62 13q-70 0 -103.5 -44.5t-33.5 -122.5
q0 -87 41.5 -130t117.5 -43q60 0 112 40t70 109q-11 5 -32.5 15.5t-33.5 16.5t-27 10.5t-26 4.5q-12 0 -21 -6q-18 -12 -18 -34q0 -19 15 -39l-16 -7q-38 52 -38 96q0 43 36 68q18 13 43 13q35 0 106.5 -35t95.5 -35q15 0 25 7q17 13 17 33q0 23 -23 55q-28 39 -67 39
q-40 0 -68 -42l-6 4v1q0 12 22 37.5t50 25.5q24 0 43 -13t43 -47q45 -62 45 -109q0 -42 -37 -69q-19 -14 -45 -14q-22 0 -50 10q-21 -75 -81 -122.5t-166 -47.5q-125 0 -200 54.5t-75 148.5q0 84 51 136.5t146 65.5q-39 9 -64.5 18t-51.5 25t-38.5 41t-12.5 60q0 67 64 109
t189 42z" />
    <glyph glyph-name="quotesingle" unicode="'" horiz-adv-x="189" 
d="M105 500h-20q-4 3 -9.5 11t-14.5 40.5t-9 74.5q0 67 -27 67l1 12q31 -4 69 -4l68 4l1 -12q-27 0 -27 -67q0 -42 -8 -73.5t-16 -42.5z" />
    <glyph glyph-name="parenleft" unicode="(" horiz-adv-x="284" 
d="M260 730v-35q-86 0 -86 -397t86 -397v-34q-65 0 -119 57.5t-85 157t-31 217t31 216.5t85 157t119 58z" />
    <glyph glyph-name="parenright" unicode=")" horiz-adv-x="284" 
d="M25 730q64 0 118 -58t85.5 -157t31.5 -216.5t-31.5 -217t-85.5 -157t-118 -57.5v34q85 0 85 397t-85 397v35z" />
    <glyph glyph-name="asterisk" unicode="*" horiz-adv-x="332" 
d="M123 700q19 -3 43 -3l42 3l1 -7q-17 0 -17 -42q0 -41 -12 -66q20 20 60 33q34 11 34 25v3l7 2q3 -19 11 -41l15 -40l-7 -3q-2 9 -16 9q-11 0 -28 -6q-30 -9 -53 -9q-8 0 -14 1q25 -14 50 -47q18 -26 31 -26q3 0 7 2l3 -6q-17 -9 -36 -23l-32 -27l-6 5q5 4 5 11
q0 11 -15 33q-24 33 -29 61q-5 -28 -29 -62q-16 -21 -16 -33q0 -7 5 -10l-5 -6q-14 13 -33 27l-36 23l4 7q3 -3 7 -3q12 0 31 26q24 33 49 47q-7 -1 -14 -1q-24 0 -53 9q-18 6 -29 6q-13 0 -16 -9l-7 3q8 17 16 40l10 41l8 -2q-1 -2 -1 -3q0 -14 35 -26q39 -12 59 -32
q-13 26 -13 67q0 42 -16 42v7z" />
    <glyph glyph-name="plus" unicode="+" horiz-adv-x="433" 
d="M199 542h35v-174h174v-35h-174v-174h-35v174h-174v35h174v174z" />
    <glyph glyph-name="comma" unicode="," horiz-adv-x="199" 
d="M100 149q30 0 52 -22.5t22 -61.5q0 -167 -115 -167v16q26 0 43 23t17 55q0 5 -1 10q-9 -2 -18 -2q-31 0 -53 22t-22 53t22 52.5t53 21.5z" />
    <glyph glyph-name="hyphen" unicode="-" horiz-adv-x="336" 
d="M311 382v-65h-286v65h286z" />
    <glyph glyph-name="period" unicode="." horiz-adv-x="199" 
d="M174 75q0 -31 -21.5 -53t-52.5 -22t-53 22t-22 53t22 52.5t53 21.5t52.5 -21.5t21.5 -52.5z" />
    <glyph glyph-name="slash" unicode="/" horiz-adv-x="399" 
d="M336 702h38l-311 -712h-38z" />
    <glyph glyph-name="zero" unicode="0" horiz-adv-x="644" 
d="M322.5 670q-148.5 0 -148.5 -320t148.5 -320t148.5 320t-148.5 320zM322.5 705q142.5 0 220 -93.5t77.5 -261.5t-77.5 -261.5t-220 -93.5t-220 93.5t-77.5 261.5t77.5 261.5t220 93.5z" />
    <glyph glyph-name="one" unicode="1" horiz-adv-x="366" 
d="M52 593l213 107v-575q0 -54 22 -83.5t49 -29.5l-2 -12q-78 8 -141 8l-141 -8l-2 12q27 0 49 29.5t22 83.5v330q0 71 -18 98.5t-53 27.5z" />
    <glyph glyph-name="two" unicode="2" horiz-adv-x="603" 
d="M141 438l-12 -5q-3 11 -10 30.5t-32.5 72.5t-56.5 96l-10 14q24 0 52.5 9t52 20t68.5 20.5t99 9.5q57 0 103.5 -10.5t82.5 -32t55.5 -58.5t19.5 -86q0 -47 -25.5 -86t-65.5 -65.5t-92 -54.5t-101.5 -51.5t-98.5 -57t-78 -69.5h337q58 0 85 32t27 79l13 -2q-8 -83 -8 -146
l8 -97h-544q0 65 21 119.5t55 92.5t75 71t82 63t75 61t55 71.5t21 87.5q0 50 -30.5 77t-86.5 27q-73 0 -112.5 -41t-39.5 -107q0 -40 16 -84z" />
    <glyph glyph-name="three" unicode="3" horiz-adv-x="568" 
d="M128 495l-11 -5q-1 5 -3.5 15t-21.5 47t-50 80l-10 14q25 0 53.5 9t52 20t63 20.5t83.5 9.5q135 0 198.5 -42t63.5 -110q0 -37 -13.5 -63t-40 -42.5t-54.5 -25.5t-68 -17q189 -31 189 -206q0 -58 -19 -98.5t-56 -63t-84 -32.5t-110 -10q-54 0 -100 9.5t-71.5 20.5
t-54.5 20t-54 9q4 5 10 14q29 40 52 84.5t32 69.5l9 25l12 -5q-12 -33 -12 -65q0 -63 42 -105t112 -42q72 0 107.5 38t35.5 124q0 185 -156 185q-31 0 -61 -11.5t-44 -22.5l-14 -11l-16 27q20 20 57.5 36t73.5 28.5t70.5 28.5t55.5 43t21 66q0 50 -35 79.5t-95 29.5
q-65 0 -106.5 -36t-41.5 -90q0 -24 9 -49z" />
    <glyph glyph-name="four" unicode="4" horiz-adv-x="620" 
d="M10 160l425 538l46 2v-403q34 6 55.5 23t21.5 40l13 -2q-8 -43 -8 -106l8 -92h-90v-160h-144v160h-327zM160 294h177v223z" />
    <glyph glyph-name="five" unicode="5" horiz-adv-x="568" 
d="M247 432q312 0 312 -235q0 -109 -70 -155.5t-199 -46.5q-54 0 -100 9.5t-71.5 20.5t-54.5 20t-54 9q4 6 10 14q31 44 56 93.5t34 77.5l10 28l12 -5q-16 -43 -16 -84q0 -66 39 -107t112 -41q71 0 107 42.5t36 134.5q0 56 -15 94.5t-42.5 59t-59 28.5t-71.5 8
q-32 0 -62 -11.5t-45 -22.5l-15 -11l-32 27l33 321h314q90 0 121 56q0 1 1 0l13 -2q-28 -49 -28 -101q0 -23 2 -45t4 -32l2 -10h-408l-17 -169q51 35 142 35z" />
    <glyph glyph-name="six" unicode="6" horiz-adv-x="561" 
d="M280 412q127 0 199.5 -51t72.5 -157q0 -101 -68.5 -155t-201.5 -54q-138 0 -197.5 77t-59.5 235q0 107 22.5 185t64.5 124t96.5 67.5t123.5 21.5q41 0 76 -9.5t55.5 -20.5t43.5 -20t42 -9q-27 -71 -27 -126q0 -17 3 -30l-11 5q-11 40 -23.5 69t-31 54.5t-46 38.5
t-64.5 13q-38 0 -64.5 -11.5t-49 -41.5t-36.5 -85t-20 -138q47 18 101 18zM177 359q-3 -54 -3 -121q0 -61 8.5 -103.5t24.5 -64.5t35 -31t44 -9q57 0 87 39t30 130q0 87 -40.5 132.5t-107.5 45.5q-40 0 -78 -18z" />
    <glyph glyph-name="seven" unicode="7" horiz-adv-x="536" 
d="M254 0h-159q0 52 15 100.5t41 89t58 78t68.5 74t69.5 70.5t64 74.5t49 79.5h-325q-59 0 -86 -32t-27 -79l-12 2q7 83 7 146l-7 97h516q0 -65 -15 -123.5t-39 -104.5t-53 -89.5t-58 -85.5t-53 -85.5t-39 -98t-15 -113.5z" />
    <glyph glyph-name="eight" unicode="8" horiz-adv-x="527" 
d="M393 361q59 -43 91.5 -85.5t32.5 -93.5q0 -99 -71 -143t-204 -44q-112 0 -172 51t-60 141q0 60 33.5 107t86.5 78q-90 73 -90 151q0 86 64.5 134t170.5 48q107 0 162 -47t55 -136q0 -51 -25.5 -92.5t-73.5 -68.5zM275 670q-46 0 -70.5 -28t-24.5 -66q0 -24 10.5 -46.5
t34 -44.5t44 -37.5t55.5 -39.5q53 59 53 141q0 121 -102 121zM250 30q50 0 88.5 28t38.5 69q0 18 -5 35t-18 34t-23.5 29t-33 29t-34.5 25.5t-41 27.5t-39 26q-66 -66 -66 -156q0 -75 32.5 -111t100.5 -36z" />
    <glyph glyph-name="nine" unicode="9" horiz-adv-x="561" 
d="M282 288q-127 0 -199.5 51t-72.5 157q0 101 68.5 155t201.5 54q137 0 197 -77t60 -235q0 -107 -22.5 -185t-64.5 -124t-96.5 -67.5t-123.5 -21.5q-41 0 -76 9.5t-55.5 20.5t-43.5 20t-43 9q28 71 28 126q0 17 -3 30l11 -5q11 -40 23 -69t31 -54.5t46.5 -38.5t63.5 -13
q39 0 65.5 11.5t49 41.5t36.5 85t20 138q-47 -18 -101 -18zM385 341q3 54 3 121q0 61 -8.5 103.5t-24.5 64.5t-35 31t-45 9q-56 0 -86 -39t-30 -130q0 -87 40 -132.5t108 -45.5q40 0 78 18z" />
    <glyph glyph-name="colon" unicode=":" horiz-adv-x="199" 
d="M174 496q0 -31 -21.5 -52.5t-52.5 -21.5t-53 21.5t-22 52.5t22 53t53 22t52.5 -22t21.5 -53zM174 203q0 -31 -21.5 -52.5t-52.5 -21.5t-53 21.5t-22 52.5t22 53t53 22t52.5 -22t21.5 -53z" />
    <glyph glyph-name="semicolon" unicode=";" horiz-adv-x="199" 
d="M174 495q0 -31 -21.5 -52.5t-52.5 -21.5t-53 21.5t-22 52.5t22 53t53 22t52.5 -22t21.5 -53zM100 277q30 0 52 -22.5t22 -61.5q0 -167 -115 -167v16q26 0 43 23t17 55q0 5 -1 10q-9 -2 -18 -2q-31 0 -53 21.5t-22 52.5t22 53t53 22z" />
    <glyph glyph-name="less" unicode="&#x3c;" horiz-adv-x="400" 
d="M359 524l16 -31l-275 -143l275 -143l-16 -31l-334 174z" />
    <glyph glyph-name="equal" unicode="=" horiz-adv-x="433" 
d="M408 329v-35h-383v35h383zM408 405v-34h-383v34h383z" />
    <glyph glyph-name="greater" unicode="&#x3e;" horiz-adv-x="400" 
d="M41 524l334 -174l-334 -174l-16 31l275 143l-275 143z" />
    <glyph glyph-name="question" unicode="?" horiz-adv-x="583" 
d="M352 75q0 -31 -22 -53t-53 -22t-52.5 22t-21.5 53t21.5 52.5t52.5 21.5t53 -21.5t22 -52.5zM295 205h-35q0 47 14.5 84.5t35 63l41 51t35 62t14.5 82.5q0 59 -33.5 90.5t-91.5 31.5q-66 0 -104.5 -43t-38.5 -109q0 -39 15 -80l-12 -5q-3 11 -10 30.5t-33 72.5t-57 96
l-10 14q25 0 53 9t52 20t68.5 20.5t98.5 9.5q58 0 104 -9.5t82 -30t56 -55.5t20 -82q0 -33 -14.5 -61t-38 -47.5t-51.5 -37t-56.5 -35t-51.5 -37t-37.5 -46.5t-14.5 -59z" />
    <glyph glyph-name="at" unicode="@" 
 />
    <glyph glyph-name="A" unicode="A" horiz-adv-x="727" 
d="M330 705h110l196 -580q20 -59 39 -86t43 -27l-3 -12q-80 7 -143 7q-28 0 -66.5 -1.5t-62.5 -3.5l-24 -2l-3 12q28 0 49.5 17t21.5 51q0 20 -9 45q-56 166 -158 166q-63 0 -108 -42.5t-79 -127.5q-10 -26 -10 -46q0 -33 22.5 -48t51.5 -15l-3 -12q-56 7 -95 7l-87 -7
l-2 12q24 0 42.5 24.5t42.5 84.5zM212 317q36 23 82 23q76 0 126 -43l-99 292z" />
    <glyph glyph-name="B" unicode="B" horiz-adv-x="617" 
d="M176 8q-28 0 -64 -2t-57 -4l-22 -2l-3 12q28 0 50 29.5t22 83.5v437q0 54 -22.5 90t-49.5 36l3 12q76 -7 143 -7q54 0 99.5 3.5t68.5 3.5q110 0 159.5 -38t49.5 -115q0 -42 -24 -82.5t-68 -72.5q64 -24 105 -79t41 -119q0 -49 -21 -88t-54 -61t-70 -33.5t-73 -11.5
q-54 0 -116 4t-97 4zM251 133q0 -53 21 -75.5t66 -22.5q53 0 84 44t31 125q0 49 -16 88.5t-41 62.5q-66 -30 -145 -37v-185zM251 562v-205q68 17 108 68.5t40 122.5q0 60 -21.5 88.5t-56.5 28.5t-52.5 -28.5t-17.5 -74.5z" />
    <glyph glyph-name="C" unicode="C" horiz-adv-x="657" 
d="M505 400q15 41 15 83q0 77 -44.5 132t-110.5 55q-87 0 -136.5 -85.5t-49.5 -234.5q0 -155 51.5 -237.5t144.5 -82.5q82 0 155.5 63t92.5 135l25 -11q-24 -89 -106 -155.5t-187 -66.5q-330 0 -330 355q0 170 90.5 262.5t249.5 92.5q54 0 99 -9.5t69.5 -20.5t52.5 -20
t53 -9q-4 -5 -10 -14q-31 -43 -59 -102.5t-41 -96.5l-12 -38z" />
    <glyph glyph-name="D" unicode="D" horiz-adv-x="743" 
d="M250 547v-410q0 -102 122 -102q91 0 142 87.5t51 256.5q0 140 -46 213t-129 73q-66 0 -103 -35t-37 -83zM176 8l-144 -8l-2 12q27 0 49 29.5t22 83.5v437q0 54 -22.5 90t-48.5 36l2 12q77 -7 144 -7q55 0 121 3.5t100 3.5q322 0 322 -333q0 -172 -85.5 -269.5
t-243.5 -97.5q-34 0 -87.5 4t-126.5 4z" />
    <glyph glyph-name="E" unicode="E" horiz-adv-x="622" 
d="M381 35q87 0 137 61.5t82 181.5l13 -3q-5 -15 -13 -41.5t-20.5 -94.5t-12.5 -122l1 -17q-27 0 -154.5 4t-237.5 4l-144 -8l-2 12q27 0 49 29.5t22 83.5v437q0 54 -22.5 90t-48.5 36l2 12q88 -7 144 -7l367 7q-1 -7 -1 -17q0 -54 11 -106t21 -77l11 -26l-12 -2
q-5 17 -15 39.5t-28.5 50t-40.5 50t-52.5 38t-63.5 15.5q-63 0 -92.5 -30.5t-30.5 -74.5v-33.5v-83v-76.5q48 1 77.5 5.5t50.5 17.5t33 28.5t28 46.5l13 -3q-5 -7 -12 -19t-18.5 -48t-11.5 -70q0 -64 25 -152l-13 -3q-12 45 -24 73t-31 49.5t-47.5 31t-69.5 9.5v-191
q1 -51 30.5 -79t100.5 -28z" />
    <glyph glyph-name="F" unicode="F" horiz-adv-x="595" 
d="M250 353q52 0 83 4t53 17.5t33.5 28.5t29.5 47l13 -3q-5 -7 -12 -19t-18.5 -48t-11.5 -70q0 -64 25 -152l-13 -3q-12 46 -24.5 73.5t-33 49t-50.5 31t-74 9.5v-193q0 -54 22 -83.5t49 -29.5l-2 -12q-80 8 -143 8q-28 0 -64 -2t-58 -4l-22 -2l-2 12q27 0 49 29.5t22 83.5
v437q0 54 -22.5 90t-48.5 36l2 12q77 -7 144 -7q34 0 197.5 3.5t168.5 3.5h1q-1 -7 -1 -17q0 -54 11 -106t21 -77l11 -26l-12 -2q-5 17 -15 39.5t-28.5 50t-40.5 50t-52.5 38t-63.5 15.5q-63 0 -92.5 -30.5t-30.5 -74.5v-207z" />
    <glyph glyph-name="G" unicode="G" horiz-adv-x="662" 
d="M346 319q106 -7 173 -7q29 0 62 2t51 4l18 1l2 -12q-25 0 -42 -34.5t-17 -91.5v-56q0 -56 16.5 -84.5t42.5 -28.5l-2 -12q-33 0 -60.5 7.5t-45 15t-25.5 7.5q-7 0 -24.5 -8.5t-53.5 -17.5t-86 -9q-330 0 -330 355q0 170 90.5 262.5t249.5 92.5q54 0 99 -9.5t69.5 -20.5
t52.5 -20t53 -9q-4 -5 -10 -14q-31 -43 -59 -102.5t-41 -96.5l-12 -38l-12 5q15 41 15 83q0 77 -44.5 132t-110.5 55q-87 0 -136.5 -85.5t-49.5 -234.5q0 -168 44 -244t129 -76q40 0 66 24t26 71v56q0 63 -32 94.5t-69 31.5z" />
    <glyph glyph-name="H" unicode="H" horiz-adv-x="759" 
d="M440 700q77 -7 143 -7q30 0 66 1.5t57 3.5l21 2l2 -12q-26 0 -48.5 -36t-22.5 -90v-437q0 -54 22 -83.5t49 -29.5l-2 -12q-81 8 -144 8l-143 -8l-2 12q27 0 49 29.5t22 83.5v204q-27 7 -57 7q-94 0 -148 -53.5t-54 -157.5q0 -54 22 -83.5t49 -29.5l-2 -12q-80 8 -143 8
l-144 -8l-2 12q27 0 49 29.5t22 83.5v437q0 54 -22.5 90t-48.5 36l2 12q77 -7 144 -7q29 0 65 1.5t57 3.5l21 2l2 -12q-26 0 -48.5 -36t-22.5 -90v-237q67 60 161 60q59 0 98 -18v195q0 54 -22.5 90t-48.5 36z" />
    <glyph glyph-name="I" unicode="I" horiz-adv-x="351" 
d="M32 700q77 -7 144 -7q29 0 65 1.5t57 3.5l21 2l2 -12q-26 0 -48.5 -36t-22.5 -90v-437q0 -54 22 -83.5t49 -29.5l-2 -12q-80 8 -143 8l-144 -8l-2 12q27 0 49 29.5t22 83.5v437q0 54 -22.5 90t-48.5 36z" />
    <glyph glyph-name="J" unicode="J" horiz-adv-x="401" 
d="M72 700q77 -7 143 -7l144 7l2 -12q-26 0 -48.5 -36t-22.5 -90v-448q0 -126 -69 -186.5t-209 -60.5l-2 12q20 0 41.5 13.5t42 40t34 74t13.5 107.5v448q0 54 -22.5 90t-48.5 36z" />
    <glyph glyph-name="K" unicode="K" horiz-adv-x="766" 
d="M32 700q77 -7 144 -7q29 0 65 1.5t57 3.5l21 2l2 -12q-26 0 -48.5 -36t-22.5 -90v-291q30 72 85 153.5t124 154.5q46 46 46 78q0 14 -10 22.5t-27 8.5l3 12q53 -7 93 -7l86 7l3 -12q-21 0 -65.5 -36t-81.5 -73q-60 -64 -110 -130l216 -324q3 -5 10 -15q20 -30 29 -43
t22 -28.5t23 -21t21 -5.5l-3 -12q-80 8 -143 8l-151 -8l-2 12q19 0 31.5 10t12.5 29q0 30 -29 74l-125 188q-58 -108 -58 -188q0 -54 22 -83.5t49 -29.5l-2 -12q-80 8 -143 8l-144 -8l-2 12q27 0 49 29.5t22 83.5v437q0 54 -22.5 90t-48.5 36z" />
    <glyph glyph-name="L" unicode="L" horiz-adv-x="622" 
d="M381 35q87 0 137 61.5t82 181.5l13 -3q-5 -15 -13 -41.5t-20.5 -94.5t-12.5 -122l1 -17q-27 0 -154.5 4t-237.5 4l-144 -8l-2 12q27 0 49 29.5t22 83.5v437q0 54 -22.5 90t-48.5 36l2 12q77 -7 144 -7q29 0 65 1.5t57 3.5l21 2l2 -12q-26 0 -48.5 -36t-22.5 -90v-420
q1 -51 30.5 -79t100.5 -28z" />
    <glyph glyph-name="M" unicode="M" horiz-adv-x="871" 
d="M268 700l180 -403l171 398q34 -2 76 -2l144 7l2 -12q-26 0 -48.5 -36t-22.5 -90v-437q0 -54 22 -83.5t49 -29.5l-2 -12q-81 8 -144 8l-150 -8l-3 12q34 0 56.5 27t22.5 86v437q0 21 -4 40l-210 -490h-19h-20l-224 500q-8 -21 -8 -48v-443q0 -59 22 -84t56 -25l-2 -12
q-54 8 -93 8l-87 -8l-2 12q28 0 49.5 28t21.5 81v443q0 55 -22.5 89.5t-48.5 34.5l2 12q73 -7 124 -7z" />
    <glyph glyph-name="N" unicode="N" horiz-adv-x="696" 
d="M32 700q47 -7 87 -7q22 0 53 3l388 -463v331q0 60 -23 92t-55 32l2 12q54 -7 94 -7l86 7l2 -12q-26 0 -48.5 -34.5t-22.5 -89.5v-443q0 -53 21.5 -81t49.5 -28l-2 -12q-47 8 -86 8q-10 0 -23 -1l-419 500v-386q0 -59 22 -84t56 -25l-2 -12q-54 8 -93 8q-18 0 -39.5 -2
t-34.5 -4l-13 -2l-2 12q28 0 49.5 28t21.5 81v443q0 55 -22.5 89.5t-48.5 34.5z" />
    <glyph glyph-name="O" unicode="O" horiz-adv-x="714" 
d="M357 670q-87 0 -132.5 -83t-45.5 -237t45.5 -237t132.5 -83t132.5 83t45.5 237t-45.5 237t-132.5 83zM357 705q158 0 245.5 -92t87.5 -263t-87.5 -263t-245.5 -92t-245 92t-87 263t87 263t245 92z" />
    <glyph glyph-name="P" unicode="P" horiz-adv-x="619" 
d="M250 562v-293q78 24 126.5 90t48.5 149q0 72 -23 114.5t-71 42.5q-39 0 -60 -27t-21 -76zM250 227v-102q0 -57 26.5 -85t57.5 -28l-3 -12q-77 8 -155 8l-144 -8l-2 12q27 0 49 29.5t22 83.5v437q0 54 -22.5 90t-48.5 36l2 12q77 -7 144 -7q53 0 104.5 3.5t77.5 3.5
q114 0 168 -51t54 -141q0 -106 -89.5 -185.5t-240.5 -95.5z" />
    <glyph glyph-name="Q" unicode="Q" horiz-adv-x="714" 
d="M667 66l13 -2l-10 -10t-21 -26.5t-26.5 -42.5t-21 -55.5t-9.5 -66.5v-17q-40 -18 -110 -18q-57 0 -112 21t-92.5 49.5t-72 66.5t-51 62t-29.5 47q-100 93 -100 276q0 171 87 263t245 92t245.5 -92t87.5 -263t-87.5 -263t-245.5 -92q-53 0 -99 11q98 -75 193 -75
q34 0 59 6t46.5 21t34.5 27t37 39t39 42zM357 670q-87 0 -132.5 -83t-45.5 -237t45.5 -237t132.5 -83t132.5 83t45.5 237t-45.5 237t-132.5 83z" />
    <glyph glyph-name="R" unicode="R" horiz-adv-x="727" 
d="M423 125l-50 111q-9 21 -28 31q-44 -10 -95 -14v-128q0 -57 26.5 -85t57.5 -28l-3 -12q-77 8 -155 8l-144 -8l-2 12q27 0 49 29.5t22 83.5v437q0 54 -22.5 90t-48.5 36l2 12q77 -7 144 -7q53 0 104.5 3.5t77.5 3.5q115 0 172 -51.5t57 -140.5q0 -127 -122 -196
q44 -15 66 -65l55 -122q27 -61 47.5 -87t43.5 -26l-2 -12q-83 8 -146 8l-143 -8l-3 12q21 0 37 15.5t16 43.5q0 24 -13 54zM250 562v-268q82 19 132.5 76t50.5 138q0 157 -100 157q-39 0 -61 -27.5t-22 -75.5z" />
    <glyph glyph-name="S" unicode="S" horiz-adv-x="700" 
d="M173 257q-12 -35 -12 -67q0 -71 50 -115.5t123 -44.5q75 0 114 24.5t39 69.5q0 29 -22.5 56t-58.5 49t-80 44t-87.5 47t-79.5 51.5t-58.5 63t-22.5 78.5q0 90 73.5 141t197.5 51q52 0 97 -9.5t71 -20.5t55.5 -20t53.5 -9q-5 -5 -11 -14q-31 -43 -55.5 -93t-34.5 -78
l-9 -28l-12 5q12 34 12 67q0 70 -45.5 117.5t-119.5 47.5q-54 0 -87 -26t-33 -66q0 -27 22.5 -52t58.5 -46.5t80 -43.5t87.5 -47t79.5 -52.5t58.5 -64t22.5 -78.5q0 -53 -24 -93t-66.5 -62.5t-95 -33t-115.5 -10.5q-52 0 -97.5 9.5t-72 20.5t-56 20t-53.5 9q4 5 10 14
q31 43 54 91.5t30 75.5l7 27z" />
    <glyph glyph-name="T" unicode="T" horiz-adv-x="655" 
d="M491 0q-97 8 -164 8q-29 0 -70 -2t-67 -4l-26 -2l-2 12q30 0 60.5 34.5t30.5 91.5v437q0 59 -27 90q-90 -1 -132.5 -39.5t-71.5 -146.5l-12 3q4 9 10 26t16 69t10 106l-1 17q32 0 124.5 -3t158.5 -4q65 1 157.5 4t124.5 3v-17q0 -54 9 -104t18 -74l8 -23l-12 -3
q-29 108 -71.5 146.5t-132.5 39.5q-27 -31 -27 -90v-437q0 -57 30.5 -91.5t60.5 -34.5z" />
    <glyph glyph-name="U" unicode="U" horiz-adv-x="707" 
d="M42 700q77 -7 144 -7q29 0 67 1.5t61 3.5l22 2l3 -12q-32 0 -55.5 -33t-23.5 -93v-359q0 -87 36 -130t118 -43q66 0 106.5 47.5t40.5 127.5v359q0 60 -23 92t-55 32l2 12q54 -7 94 -7q17 0 38.5 1.5t34.5 3.5l13 2l2 -12q-26 0 -48.5 -34.5t-22.5 -89.5v-326
q0 -243 -225 -243q-122 0 -191 62.5t-69 180.5v324q0 54 -22.5 90t-48.5 36z" />
    <glyph glyph-name="V" unicode="V" horiz-adv-x="737" 
d="M632 579l-234 -584h-110l-196 580q-20 59 -39 86t-43 27l2 12q81 -7 144 -7q28 0 66 1.5t63 3.5l24 2l2 -12q-27 0 -48.5 -17t-21.5 -51q0 -20 8 -45l158 -464l188 468q10 26 10 46q0 33 -22.5 48t-51.5 15l2 12q56 -7 96 -7q18 0 39.5 1.5t34.5 3.5l12 2l3 -12
q-24 0 -43 -24.5t-43 -84.5z" />
    <glyph glyph-name="W" unicode="W" horiz-adv-x="1172" 
d="M1067 579l-235 -584h-110l-148 439l-176 -439h-110l-196 580q-20 59 -39 86t-43 27l2 12q81 -7 144 -7q28 0 66 1.5t63 3.5l24 2l2 -12q-27 0 -48.5 -17t-21.5 -51q0 -20 8 -45l158 -464l150 374l-31 90q-20 59 -39 86t-43 27l3 12q80 -7 143 -7q28 0 66.5 1.5t62.5 3.5
l24 2l3 -12q-28 0 -49.5 -17t-21.5 -51q0 -20 9 -45l157 -464l188 468q11 26 11 46q0 33 -23 48t-52 15l3 12q56 -7 96 -7q17 0 38.5 1.5t34.5 3.5l13 2l2 -12q-24 0 -42.5 -24.5t-42.5 -84.5z" />
    <glyph glyph-name="X" unicode="X" horiz-adv-x="739" 
d="M123 121l167 214l-160 227q-10 13 -28.5 40t-26 37t-19.5 24.5t-21 19.5t-18 5l2 12q77 -7 143 -7l151 7l3 -12q-17 0 -27.5 -11t-10.5 -30q0 -36 34 -85l97 -137l109 139q33 42 33 74q0 24 -16.5 37t-38.5 13l3 12q54 -7 93 -7q18 0 39.5 1.5t34.5 3.5l12 2l3 -12
q-10 0 -18.5 -4.5t-20.5 -17.5t-20 -23.5t-27.5 -36.5t-32.5 -42l-132 -169l192 -270q5 -8 16 -23q37 -54 54.5 -72t37.5 -18l-3 -12q-80 7 -143 7l-151 -7l-2 12q43 0 43 34q0 29 -35 79l-128 181l-144 -185q-30 -38 -30 -65q0 -22 17.5 -33t39.5 -11l-2 -12q-54 7 -93 7
l-87 -7l-2 12q20 0 38.5 18.5t56.5 67.5q11 15 18 23z" />
    <glyph glyph-name="Y" unicode="Y" horiz-adv-x="653" 
d="M510 564q16 33 16 60q0 30 -19.5 47t-47.5 17l3 12q53 -7 93 -7l86 7l3 -12q-8 0 -15.5 -3.5t-15.5 -13t-14 -17t-16 -25.5t-15.5 -28.5t-18.5 -36.5l-130 -256v-183q0 -54 21.5 -83.5t49.5 -29.5l-3 -12q-80 8 -143 8l-143 -8l-3 12q28 0 49.5 29.5t21.5 83.5v146
l-160 291q-3 5 -9 16q-23 42 -34 60.5t-26.5 34t-29.5 15.5l2 12q77 -7 144 -7l150 7l3 -12q-24 0 -39 -12.5t-15 -37.5q0 -31 24 -76l119 -216z" />
    <glyph glyph-name="Z" unicode="Z" horiz-adv-x="656" 
d="M375 35q87 0 137 61.5t82 181.5l13 -3q-5 -15 -12.5 -41.5t-20.5 -94.5t-13 -122l1 -17q-102 5 -213 5l-297 -5l295 597q4 8 4 17q0 21 -22 36t-67 15q-33 0 -63.5 -15.5t-52.5 -38t-40.5 -50t-28.5 -50t-15 -39.5l-12 2q5 10 12 28t19 72.5t12 108.5v17q146 -5 236 -5
l236 5l-294 -594q-4 -8 -4 -17q0 -22 28 -38t80 -16z" />
    <glyph glyph-name="bracketleft" unicode="[" horiz-adv-x="277" 
d="M25 725h227v-35h-78v-793h78v-35h-227v863z" />
    <glyph glyph-name="backslash" unicode="\" horiz-adv-x="399" 
d="M336 -10l-311 712h38l311 -712h-38z" />
    <glyph glyph-name="bracketright" unicode="]" horiz-adv-x="277" 
d="M252 725v-863h-227v35h78v793h-78v35h227z" />
    <glyph glyph-name="asciicircum" unicode="^" horiz-adv-x="341" 
d="M171 705q35 -45 64 -68q9 -7 18 -15q25 -22 47 -45.5t32 -36.5l9 -12l-12 -16q-80 41 -146 93q-5 4 -12 8q-7 -4 -13 -8q-66 -52 -146 -93l-12 16q33 44 88 94q10 9 18 15q29 23 65 68z" />
    <glyph glyph-name="underscore" unicode="_" horiz-adv-x="353" 
d="M329 -5v-72h-304v72h304z" />
    <glyph glyph-name="grave" unicode="`" horiz-adv-x="256" 
d="M244 483q-9 3 -24 7.5t-54 23.5t-68 42q-17 13 -41.5 26.5t-40.5 19.5l-16 7l75 96q38 -53 75 -82q65 -51 106 -124z" />
    <glyph glyph-name="a" unicode="a" horiz-adv-x="727" 
d="M330 705h110l196 -580q20 -59 39 -86t43 -27l-3 -12q-80 7 -143 7q-28 0 -66.5 -1.5t-62.5 -3.5l-24 -2l-3 12q28 0 49.5 17t21.5 51q0 20 -9 45q-56 166 -158 166q-63 0 -108 -42.5t-79 -127.5q-10 -26 -10 -46q0 -33 22.5 -48t51.5 -15l-3 -12q-56 7 -95 7l-87 -7
l-2 12q24 0 42.5 24.5t42.5 84.5zM212 317q36 23 82 23q76 0 126 -43l-99 292z" />
    <glyph glyph-name="b" unicode="b" horiz-adv-x="617" 
d="M176 8q-28 0 -64 -2t-57 -4l-22 -2l-3 12q28 0 50 29.5t22 83.5v437q0 54 -22.5 90t-49.5 36l3 12q76 -7 143 -7q54 0 99.5 3.5t68.5 3.5q110 0 159.5 -38t49.5 -115q0 -42 -24 -82.5t-68 -72.5q64 -24 105 -79t41 -119q0 -49 -21 -88t-54 -61t-70 -33.5t-73 -11.5
q-54 0 -116 4t-97 4zM251 133q0 -53 21 -75.5t66 -22.5q53 0 84 44t31 125q0 49 -16 88.5t-41 62.5q-66 -30 -145 -37v-185zM251 562v-205q68 17 108 68.5t40 122.5q0 60 -21.5 88.5t-56.5 28.5t-52.5 -28.5t-17.5 -74.5z" />
    <glyph glyph-name="c" unicode="c" horiz-adv-x="655" 
d="M504 400q15 41 15 83q0 77 -44.5 132t-110.5 55q-87 0 -136.5 -85.5t-49.5 -234.5q0 -155 51.5 -237.5t144.5 -82.5q82 0 155.5 63t92.5 135l25 -11q-24 -89 -106 -155.5t-187 -66.5q-330 0 -330 355q0 170 90.5 262.5t249.5 92.5q54 0 99 -9.5t69.5 -20.5t52.5 -20
t53 -9q-4 -5 -10 -14q-31 -43 -59 -102.5t-41 -96.5l-12 -38z" />
    <glyph glyph-name="d" unicode="d" horiz-adv-x="743" 
d="M250 547v-410q0 -102 122 -102q91 0 142 87.5t51 256.5q0 140 -46 213t-129 73q-66 0 -103 -35t-37 -83zM176 8l-144 -8l-2 12q27 0 49 29.5t22 83.5v437q0 54 -22.5 90t-48.5 36l2 12q77 -7 144 -7q55 0 121 3.5t100 3.5q322 0 322 -333q0 -172 -85.5 -269.5
t-243.5 -97.5q-34 0 -87.5 4t-126.5 4z" />
    <glyph glyph-name="e" unicode="e" horiz-adv-x="622" 
d="M381 35q87 0 137 61.5t82 181.5l13 -3q-5 -15 -13 -41.5t-20.5 -94.5t-12.5 -122l1 -17q-27 0 -154.5 4t-237.5 4l-144 -8l-2 12q27 0 49 29.5t22 83.5v437q0 54 -22.5 90t-48.5 36l2 12q88 -7 144 -7l367 7q-1 -7 -1 -17q0 -54 11 -106t21 -77l11 -26l-12 -2
q-5 17 -15 39.5t-28.5 50t-40.5 50t-52.5 38t-63.5 15.5q-63 0 -92.5 -30.5t-30.5 -74.5v-33.5v-83v-76.5q48 1 77.5 5.5t50.5 17.5t33 28.5t28 46.5l13 -3q-5 -7 -12 -19t-18.5 -48t-11.5 -70q0 -64 25 -152l-13 -3q-12 45 -24 73t-31 49.5t-47.5 31t-69.5 9.5v-191
q1 -51 30.5 -79t100.5 -28z" />
    <glyph glyph-name="f" unicode="f" horiz-adv-x="595" 
d="M250 353q52 0 83 4t53 17.5t33.5 28.5t29.5 47l13 -3q-5 -7 -12 -19t-18.5 -48t-11.5 -70q0 -64 25 -152l-13 -3q-12 46 -24.5 73.5t-33 49t-50.5 31t-74 9.5v-193q0 -54 22 -83.5t49 -29.5l-2 -12q-80 8 -143 8q-28 0 -64 -2t-58 -4l-22 -2l-2 12q27 0 49 29.5t22 83.5
v437q0 54 -22.5 90t-48.5 36l2 12q77 -7 144 -7q34 0 197.5 3.5t168.5 3.5h1q-1 -7 -1 -17q0 -54 11 -106t21 -77l11 -26l-12 -2q-5 17 -15 39.5t-28.5 50t-40.5 50t-52.5 38t-63.5 15.5q-63 0 -92.5 -30.5t-30.5 -74.5v-207z" />
    <glyph glyph-name="g" unicode="g" horiz-adv-x="662" 
d="M346 319q106 -7 173 -7q29 0 62 2t51 4l18 1l2 -12q-25 0 -42 -34.5t-17 -91.5v-56q0 -56 16.5 -84.5t42.5 -28.5l-2 -12q-33 0 -60.5 7.5t-45 15t-25.5 7.5q-7 0 -24.5 -8.5t-53.5 -17.5t-86 -9q-330 0 -330 355q0 170 90.5 262.5t249.5 92.5q54 0 99 -9.5t69.5 -20.5
t52.5 -20t53 -9q-4 -5 -10 -14q-31 -43 -59 -102.5t-41 -96.5l-12 -38l-12 5q15 41 15 83q0 77 -44.5 132t-110.5 55q-87 0 -136.5 -85.5t-49.5 -234.5q0 -168 44 -244t129 -76q40 0 66 24t26 71v56q0 63 -32 94.5t-69 31.5z" />
    <glyph glyph-name="h" unicode="h" horiz-adv-x="758" 
d="M440 700q76 -7 143 -7q30 0 65.5 1.5t56.5 3.5l21 2l3 -12q-27 0 -49 -36t-22 -90v-437q0 -54 21.5 -83.5t49.5 -29.5l-3 -12q-80 8 -143 8l-143 -8l-3 12q28 0 49.5 29.5t21.5 83.5v204q-27 7 -57 7q-94 0 -147.5 -53.5t-53.5 -157.5q0 -54 22 -83.5t49 -29.5l-3 -12
q-80 8 -143 8l-143 -8l-2 12q27 0 49 29.5t22 83.5v437q0 54 -22.5 90t-48.5 36l2 12q77 -7 143 -7q30 0 66 1.5t57 3.5l20 2l3 -12q-26 0 -48.5 -36t-22.5 -90v-237q67 60 160 60q59 0 98 -18v195q0 54 -22.5 90t-48.5 36z" />
    <glyph glyph-name="i" unicode="i" horiz-adv-x="351" 
d="M32 700q77 -7 144 -7q29 0 65 1.5t57 3.5l21 2l2 -12q-26 0 -48.5 -36t-22.5 -90v-437q0 -54 22 -83.5t49 -29.5l-2 -12q-80 8 -143 8l-144 -8l-2 12q27 0 49 29.5t22 83.5v437q0 54 -22.5 90t-48.5 36z" />
    <glyph glyph-name="j" unicode="j" horiz-adv-x="401" 
d="M72 700q77 -7 143 -7l144 7l2 -12q-26 0 -48.5 -36t-22.5 -90v-448q0 -126 -69 -186.5t-209 -60.5l-2 12q20 0 41.5 13.5t42 40t34 74t13.5 107.5v448q0 54 -22.5 90t-48.5 36z" />
    <glyph glyph-name="k" unicode="k" horiz-adv-x="766" 
d="M32 700q77 -7 144 -7q29 0 65 1.5t57 3.5l21 2l2 -12q-26 0 -48.5 -36t-22.5 -90v-291q30 72 85 153.5t124 154.5q46 46 46 78q0 14 -10 22.5t-27 8.5l3 12q53 -7 93 -7l86 7l3 -12q-21 0 -65.5 -36t-81.5 -73q-60 -64 -110 -130l216 -324q3 -5 10 -15q20 -30 29 -43
t22 -28.5t23 -21t21 -5.5l-3 -12q-80 8 -143 8l-151 -8l-2 12q19 0 31.5 10t12.5 29q0 30 -29 74l-125 188q-58 -108 -58 -188q0 -54 22 -83.5t49 -29.5l-2 -12q-80 8 -143 8l-144 -8l-2 12q27 0 49 29.5t22 83.5v437q0 54 -22.5 90t-48.5 36z" />
    <glyph glyph-name="l" unicode="l" horiz-adv-x="622" 
d="M381 35q87 0 137 61.5t82 181.5l13 -3q-5 -15 -13 -41.5t-20.5 -94.5t-12.5 -122l1 -17q-27 0 -154.5 4t-237.5 4l-144 -8l-2 12q27 0 49 29.5t22 83.5v437q0 54 -22.5 90t-48.5 36l2 12q77 -7 144 -7q29 0 65 1.5t57 3.5l21 2l2 -12q-26 0 -48.5 -36t-22.5 -90v-420
q1 -51 30.5 -79t100.5 -28z" />
    <glyph glyph-name="m" unicode="m" horiz-adv-x="871" 
d="M268 700l180 -403l171 398q34 -2 76 -2l144 7l2 -12q-26 0 -48.5 -36t-22.5 -90v-437q0 -54 22 -83.5t49 -29.5l-2 -12q-81 8 -144 8l-150 -8l-3 12q34 0 56.5 27t22.5 86v437q0 21 -4 40l-210 -490h-19h-20l-224 500q-8 -21 -8 -48v-443q0 -59 22 -84t56 -25l-2 -12
q-54 8 -93 8l-87 -8l-2 12q28 0 49.5 28t21.5 81v443q0 55 -22.5 89.5t-48.5 34.5l2 12q73 -7 124 -7z" />
    <glyph glyph-name="n" unicode="n" horiz-adv-x="696" 
d="M32 700q47 -7 87 -7q22 0 53 3l388 -463v331q0 60 -23 92t-55 32l2 12q54 -7 94 -7l86 7l2 -12q-26 0 -48.5 -34.5t-22.5 -89.5v-443q0 -53 21.5 -81t49.5 -28l-2 -12q-47 8 -86 8q-10 0 -23 -1l-419 500v-386q0 -59 22 -84t56 -25l-2 -12q-54 8 -93 8q-18 0 -39.5 -2
t-34.5 -4l-13 -2l-2 12q28 0 49.5 28t21.5 81v443q0 55 -22.5 89.5t-48.5 34.5z" />
    <glyph glyph-name="o" unicode="o" horiz-adv-x="714" 
d="M357 670q-87 0 -132.5 -83t-45.5 -237t45.5 -237t132.5 -83t132.5 83t45.5 237t-45.5 237t-132.5 83zM357 705q158 0 245.5 -92t87.5 -263t-87.5 -263t-245.5 -92t-245 92t-87 263t87 263t245 92z" />
    <glyph glyph-name="p" unicode="p" horiz-adv-x="619" 
d="M250 562v-293q78 24 126.5 90t48.5 149q0 72 -23 114.5t-71 42.5q-39 0 -60 -27t-21 -76zM250 227v-102q0 -57 26.5 -85t57.5 -28l-3 -12q-77 8 -155 8l-144 -8l-2 12q27 0 49 29.5t22 83.5v437q0 54 -22.5 90t-48.5 36l2 12q77 -7 144 -7q53 0 104.5 3.5t77.5 3.5
q114 0 168 -51t54 -141q0 -106 -89.5 -185.5t-240.5 -95.5z" />
    <glyph glyph-name="q" unicode="q" horiz-adv-x="714" 
d="M667 66l13 -2l-10 -10t-21 -26.5t-26.5 -42.5t-21 -55.5t-9.5 -66.5v-17q-40 -18 -110 -18q-57 0 -112 21t-92.5 49.5t-72 66.5t-51 62t-29.5 47q-100 93 -100 276q0 171 87 263t245 92t245.5 -92t87.5 -263t-87.5 -263t-245.5 -92q-53 0 -99 11q98 -75 193 -75
q34 0 59 6t46.5 21t34.5 27t37 39t39 42zM357 670q-87 0 -132.5 -83t-45.5 -237t45.5 -237t132.5 -83t132.5 83t45.5 237t-45.5 237t-132.5 83z" />
    <glyph glyph-name="r" unicode="r" horiz-adv-x="726" 
d="M422 125l-49 111q-10 21 -28 31q-45 -10 -95 -14v-128q0 -57 26.5 -85t56.5 -28l-2 -12q-78 8 -156 8l-143 -8l-2 12q27 0 49 29.5t22 83.5v437q0 54 -22.5 90t-48.5 36l2 12q77 -7 143 -7q53 0 104.5 3.5t78.5 3.5q115 0 172 -51.5t57 -140.5q0 -127 -123 -196
q45 -15 67 -65l55 -122q27 -61 47 -87t44 -26l-3 -12q-82 8 -145 8l-144 -8l-2 12q20 0 36.5 15.5t16.5 43.5q0 24 -14 54zM250 562v-268q81 19 131.5 76t50.5 138q0 157 -99 157q-40 0 -61.5 -27.5t-21.5 -75.5z" />
    <glyph glyph-name="s" unicode="s" horiz-adv-x="700" 
d="M173 257q-12 -35 -12 -67q0 -71 50 -115.5t123 -44.5q75 0 114 24.5t39 69.5q0 29 -22.5 56t-58.5 49t-80 44t-87.5 47t-79.5 51.5t-58.5 63t-22.5 78.5q0 90 73.5 141t197.5 51q52 0 97 -9.5t71 -20.5t55.5 -20t53.5 -9q-5 -5 -11 -14q-31 -43 -55.5 -93t-34.5 -78
l-9 -28l-12 5q12 34 12 67q0 70 -45.5 117.5t-119.5 47.5q-54 0 -87 -26t-33 -66q0 -27 22.5 -52t58.5 -46.5t80 -43.5t87.5 -47t79.5 -52.5t58.5 -64t22.5 -78.5q0 -53 -24 -93t-66.5 -62.5t-95 -33t-115.5 -10.5q-52 0 -97.5 9.5t-72 20.5t-56 20t-53.5 9q4 5 10 14
q31 43 54 91.5t30 75.5l7 27z" />
    <glyph glyph-name="t" unicode="t" horiz-adv-x="655" 
d="M491 0q-97 8 -164 8q-29 0 -70 -2t-67 -4l-26 -2l-2 12q30 0 60.5 34.5t30.5 91.5v437q0 59 -27 90q-90 -1 -132.5 -39.5t-71.5 -146.5l-12 3q4 9 10 26t16 69t10 106l-1 17q32 0 124.5 -3t158.5 -4q65 1 157.5 4t124.5 3v-17q0 -54 9 -104t18 -74l8 -23l-12 -3
q-29 108 -71.5 146.5t-132.5 39.5q-27 -31 -27 -90v-437q0 -57 30.5 -91.5t60.5 -34.5z" />
    <glyph glyph-name="u" unicode="u" horiz-adv-x="707" 
d="M42 700q77 -7 144 -7q29 0 67 1.5t61 3.5l22 2l3 -12q-32 0 -55.5 -33t-23.5 -93v-359q0 -87 36 -130t118 -43q66 0 106.5 47.5t40.5 127.5v359q0 60 -23 92t-55 32l2 12q54 -7 94 -7q17 0 38.5 1.5t34.5 3.5l13 2l2 -12q-26 0 -48.5 -34.5t-22.5 -89.5v-326
q0 -243 -225 -243q-122 0 -191 62.5t-69 180.5v324q0 54 -22.5 90t-48.5 36z" />
    <glyph glyph-name="v" unicode="v" horiz-adv-x="737" 
d="M632 579l-234 -584h-110l-196 580q-20 59 -39 86t-43 27l2 12q81 -7 144 -7q28 0 66 1.5t63 3.5l24 2l2 -12q-27 0 -48.5 -17t-21.5 -51q0 -20 8 -45l158 -464l188 468q10 26 10 46q0 33 -22.5 48t-51.5 15l2 12q56 -7 96 -7q18 0 39.5 1.5t34.5 3.5l12 2l3 -12
q-24 0 -43 -24.5t-43 -84.5z" />
    <glyph glyph-name="w" unicode="w" horiz-adv-x="1172" 
d="M1067 579l-235 -584h-110l-148 439l-176 -439h-110l-196 580q-20 59 -39 86t-43 27l2 12q81 -7 144 -7q28 0 66 1.5t63 3.5l24 2l2 -12q-27 0 -48.5 -17t-21.5 -51q0 -20 8 -45l158 -464l150 374l-31 90q-20 59 -39 86t-43 27l3 12q80 -7 143 -7q28 0 66.5 1.5t62.5 3.5
l24 2l3 -12q-28 0 -49.5 -17t-21.5 -51q0 -20 9 -45l157 -464l188 468q11 26 11 46q0 33 -23 48t-52 15l3 12q56 -7 96 -7q17 0 38.5 1.5t34.5 3.5l13 2l2 -12q-24 0 -42.5 -24.5t-42.5 -84.5z" />
    <glyph glyph-name="x" unicode="x" horiz-adv-x="739" 
d="M123 121l167 214l-160 227q-10 13 -28.5 40t-26 37t-19.5 24.5t-21 19.5t-18 5l2 12q77 -7 143 -7l151 7l3 -12q-17 0 -27.5 -11t-10.5 -30q0 -36 34 -85l97 -137l109 139q33 42 33 74q0 24 -16.5 37t-38.5 13l3 12q54 -7 93 -7q18 0 39.5 1.5t34.5 3.5l12 2l3 -12
q-10 0 -18.5 -4.5t-20.5 -17.5t-20 -23.5t-27.5 -36.5t-32.5 -42l-132 -169l192 -270q5 -8 16 -23q37 -54 54.5 -72t37.5 -18l-3 -12q-80 7 -143 7l-151 -7l-2 12q43 0 43 34q0 29 -35 79l-128 181l-144 -185q-30 -38 -30 -65q0 -22 17.5 -33t39.5 -11l-2 -12q-54 7 -93 7
l-87 -7l-2 12q20 0 38.5 18.5t56.5 67.5q11 15 18 23z" />
    <glyph glyph-name="y" unicode="y" horiz-adv-x="653" 
d="M510 564q16 33 16 60q0 30 -19.5 47t-47.5 17l3 12q53 -7 93 -7l86 7l3 -12q-8 0 -15.5 -3.5t-15.5 -13t-14 -17t-16 -25.5t-15.5 -28.5t-18.5 -36.5l-130 -256v-183q0 -54 21.5 -83.5t49.5 -29.5l-3 -12q-80 8 -143 8l-143 -8l-3 12q28 0 49.5 29.5t21.5 83.5v146
l-160 291q-3 5 -9 16q-23 42 -34 60.5t-26.5 34t-29.5 15.5l2 12q77 -7 144 -7l150 7l3 -12q-24 0 -39 -12.5t-15 -37.5q0 -31 24 -76l119 -216z" />
    <glyph glyph-name="z" unicode="z" horiz-adv-x="656" 
d="M375 35q87 0 137 61.5t82 181.5l13 -3q-5 -15 -12.5 -41.5t-20.5 -94.5t-13 -122l1 -17q-102 5 -213 5l-297 -5l295 597q4 8 4 17q0 21 -22 36t-67 15q-33 0 -63.5 -15.5t-52.5 -38t-40.5 -50t-28.5 -50t-15 -39.5l-12 2q5 10 12 28t19 72.5t12 108.5v17q146 -5 236 -5
l236 5l-294 -594q-4 -8 -4 -17q0 -22 28 -38t80 -16z" />
    <glyph glyph-name="braceleft" unicode="{" horiz-adv-x="375" 
d="M124 503q0 94 66.5 160.5t160.5 66.5v-35q-32 0 -55 -23t-23 -55v-34q0 -80 -50.5 -163.5t-122.5 -121.5q72 -37 122.5 -120.5t50.5 -164.5v-34q0 -32 23 -55t55 -23v-34q-94 0 -160.5 66.5t-66.5 160.5v41q0 46 -29 94t-70 69q41 22 70 69.5t29 93.5v42z" />
    <glyph glyph-name="bar" unicode="|" horiz-adv-x="35" 
d="M0 730h35v-863h-35v863z" />
    <glyph glyph-name="braceright" unicode="}" horiz-adv-x="375" 
d="M252 503v-42q0 -46 29 -93.5t70 -69.5q-41 -21 -70 -69t-29 -94v-41q0 -94 -66.5 -160.5t-160.5 -66.5v34q32 0 55 23t23 55v34q0 81 50.5 164.5t122.5 120.5q-72 38 -122.5 121.5t-50.5 163.5v34q0 32 -23 55t-55 23v35q94 0 160.5 -66.5t66.5 -160.5z" />
    <glyph glyph-name="asciitilde" unicode="~" horiz-adv-x="353" 
d="M348 685l5 -17q-56 -50 -88 -50q-33 0 -95.5 21t-96.5 21q-11 0 -28 -5.5t-29 -11.5l-11 -5l-5 17q6 6 16 14t34 22t38 14q34 0 96.5 -21t95.5 -21q12 0 29 5.5t28 10.5z" />
    <glyph glyph-name="uni007F" 
 />
    <glyph glyph-name="uni0080" 
 />
    <glyph glyph-name="uni0081" 
 />
    <glyph glyph-name="uni0082" 
 />
    <glyph glyph-name="uni0083" 
 />
    <glyph glyph-name="uni0084" 
 />
    <glyph glyph-name="uni0085" unicode="&#x85;" 
 />
    <glyph glyph-name="uni0086" 
 />
    <glyph glyph-name="uni0087" 
 />
    <glyph glyph-name="uni0088" 
 />
    <glyph glyph-name="uni0089" 
 />
    <glyph glyph-name="uni008A" 
 />
    <glyph glyph-name="uni008B" 
 />
    <glyph glyph-name="uni008C" 
 />
    <glyph glyph-name="uni008D" 
 />
    <glyph glyph-name="uni008E" 
 />
    <glyph glyph-name="uni008F" 
 />
    <glyph glyph-name="uni0090" 
 />
    <glyph glyph-name="uni0091" 
 />
    <glyph glyph-name="uni0092" 
 />
    <glyph glyph-name="uni0093" 
 />
    <glyph glyph-name="uni0094" 
 />
    <glyph glyph-name="uni0095" 
 />
    <glyph glyph-name="uni0096" 
 />
    <glyph glyph-name="uni0097" 
 />
    <glyph glyph-name="uni0098" 
 />
    <glyph glyph-name="uni0099" 
 />
    <glyph glyph-name="uni009A" 
 />
    <glyph glyph-name="uni009B" 
 />
    <glyph glyph-name="uni009C" 
 />
    <glyph glyph-name="uni009D" 
 />
    <glyph glyph-name="uni009E" 
 />
    <glyph glyph-name="uni009F" 
 />
    <glyph glyph-name="uni00A0" unicode="&#xa0;" 
 />
    <glyph glyph-name="exclamdown" unicode="&#xa1;" horiz-adv-x="311" 
d="M230 492q0 -31 -21.5 -53t-52.5 -22t-53 22t-22 53t22 53t53 22t52.5 -22t21.5 -53zM173 362q3 -5 6.5 -15t13.5 -44.5t17.5 -72.5t13.5 -99.5t6 -125.5q0 -57 16 -91.5t41 -34.5l-3 -12q-62 7 -128 7l-129 -7l-2 12q25 0 40.5 34.5t15.5 91.5q0 64 6 125t14.5 101t17 71
t13.5 45l6 15h35z" />
    <glyph glyph-name="cent" unicode="&#xa2;" horiz-adv-x="657" 
d="M319 777h35v-72h11q54 0 99 -9t69.5 -20.5t52.5 -20.5t53 -9q-4 -5 -10 -14q-31 -43 -59 -102.5t-41 -96.5l-12 -38l-12 5q15 41 15 83q0 77 -44.5 132t-110.5 55h-11v-639q10 -1 21 -1q82 0 155.5 63t92.5 135l25 -10q-24 -90 -106 -156.5t-187 -66.5h-1v-82h-35v83
q-294 19 -294 354q0 157 77.5 248.5t216.5 104.5v74zM319 39v624q-67 -21 -103.5 -103.5t-36.5 -209.5q0 -129 36.5 -208.5t103.5 -102.5z" />
    <glyph glyph-name="sterling" unicode="&#xa3;" horiz-adv-x="677" 
d="M465 370v-35h-160v-193q0 -52 30 -79.5t101 -27.5q87 0 137 61.5t82 181.5l12 -3q-5 -15 -12.5 -41.5t-20 -94.5t-12.5 -122v-17q-26 0 -153.5 3.5t-237.5 3.5q-28 0 -64 -1.5t-58 -3.5l-22 -2l-2 12q27 0 49 29.5t22 83.5v210h-106v35h106v127q0 95 64.5 151.5
t189.5 56.5q54 0 94 -9.5t58.5 -20.5t42 -20t48.5 -9q-5 -5 -11 -14q-31 -43 -55.5 -93t-34.5 -78l-9 -28l-12 5q19 51 19 98q0 60 -31 97t-89 37q-57 0 -91 -42.5t-34 -118.5v-139h160z" />
    <glyph glyph-name="currency" unicode="&#xa4;" horiz-adv-x="370" 
d="M185.5 476q-52.5 0 -89 -36.5t-36.5 -88.5t36.5 -89t89 -37t89 37t36.5 89t-36.5 88.5t-89 36.5zM185.5 511q56.5 0 100.5 -35l23 23l24 -25l-23 -23q36 -44 36 -100.5t-36 -100.5l23 -22l-24 -25l-23 23q-44 -36 -100.5 -36t-100.5 36l-23 -23l-24 25l22 22
q-35 44 -35 100.5t35 100.5l-22 23l24 25l23 -23q44 35 100.5 35z" />
    <glyph glyph-name="yen" unicode="&#xa5;" horiz-adv-x="653" 
d="M570 245v-35h-151v-85q0 -54 21.5 -83.5t49.5 -29.5l-3 -12q-80 7 -143 7l-143 -7l-3 12q28 0 49.5 29.5t21.5 83.5v85h-151v35h151v26l-14 25h-137v35h118l-127 231q-3 5 -9 16q-23 42 -34 60.5t-26.5 34t-29.5 15.5l2 12q77 -7 144 -7q29 0 67 1.5t61 3.5l22 2l3 -12
q-24 0 -39 -12.5t-15 -37.5q0 -31 24 -76l119 -216l112 218q16 33 16 60q0 30 -19.5 47t-47.5 17l3 12q53 -7 93 -7l86 7l3 -12q-8 0 -15.5 -3.5t-15.5 -13t-14 -17t-16 -25.5t-15.5 -29t-18.5 -36l-119 -233h140v-35h-151v-51h151z" />
    <glyph glyph-name="brokenbar" unicode="&#xa6;" horiz-adv-x="84" 
d="M25 241h35v-374h-35v374zM25 730h35v-374h-35v374z" />
    <glyph glyph-name="section" unicode="&#xa7;" horiz-adv-x="513" 
d="M294 737q51 0 91 -11t67.5 -22t50.5 -11q-4 -4 -8 -10q-23 -33 -41.5 -70t-25.5 -58l-7 -21l-9 4q10 29 10 56q0 51 -33 84t-89 33h-1q-41 0 -64 -19t-23 -49q0 -27 31 -52.5t75.5 -48t88.5 -47t75 -61t31 -78.5q0 -103 -116 -135q40 -41 40 -89q0 -40 -17.5 -69.5
t-49 -46t-71.5 -24.5t-89 -8q-51 0 -91 11t-68.5 22t-50.5 11q3 4 8 10q23 33 40 69t22 56l6 20l8 -4q-10 -29 -10 -55q0 -51 35.5 -82.5t91.5 -31.5q114 0 114 70q0 25 -23 48.5t-52 39.5t-74 40.5t-70 41.5l-14 10q-69 51 -69 110q0 51 31.5 85.5t89.5 48.5q-45 42 -45 90
q0 68 54.5 105.5t150.5 37.5zM170 475q-34 -18 -34 -56q0 -16 10 -31q4 -5 7 -9q22 -24 101 -65.5t107 -62.5q30 18 30 53q0 28 -29 54q-6 7 -16 14q-24 18 -86.5 51.5t-89.5 51.5z" />
    <glyph glyph-name="dieresis" unicode="&#xa8;" horiz-adv-x="291" 
d="M291 642q0 -26 -18 -44.5t-44.5 -18.5t-44.5 18.5t-18 44.5t18 44.5t44.5 18.5t44.5 -18.5t18 -44.5zM126 642q0 -26 -18.5 -44.5t-44.5 -18.5t-44.5 18.5t-18.5 44.5t18.5 44.5t44.5 18.5t44.5 -18.5t18.5 -44.5z" />
    <glyph glyph-name="copyright" unicode="&#xa9;" horiz-adv-x="796" 
d="M398 707q-92 0 -170 -45.5t-123 -123.5t-45 -170t45 -170t123 -123t170 -45t170 45t123.5 123t45.5 170t-45.5 170t-123.5 123.5t-170 45.5zM398.5 742q101.5 0 187.5 -50t136 -136t50 -187.5t-50 -187.5t-136 -136t-187.5 -50t-187.5 50t-136 136t-50 187.5t50 187.5
t136 136t187.5 50zM507 397q10 27 10 55q0 53 -30.5 90t-74.5 37q-59 0 -92.5 -58t-33.5 -159q0 -104 35 -160t97 -56q56 0 106 42.5t63 91.5l16 -7q-16 -61 -71.5 -106t-126.5 -45q-223 0 -223 240q0 116 61 178.5t169 62.5q46 0 81.5 -10t59.5 -20t45 -10q-3 -4 -7 -10
q-21 -29 -40 -69t-28 -66l-8 -25z" />
    <glyph glyph-name="ordfeminine" unicode="&#xaa;" 
 />
    <glyph glyph-name="guillemotleft" unicode="&#xab;" horiz-adv-x="381" 
d="M178 350q47 37 71 68q7 9 16 19q24 26 48.5 49t37.5 34l14 10l16 -13q-43 -84 -98 -154q-4 -5 -9 -13q5 -7 9 -13q55 -70 98 -154l-16 -13q-47 35 -100 93q-9 10 -16 19q-24 31 -71 68zM0 350q55 43 83 79q7 9 18 21q27 30 55.5 57t43.5 38l15 12l19 -15
q-49 -96 -112 -177q-5 -6 -11 -15q6 -9 11 -15q28 -36 56 -80t42 -71l14 -26l-19 -15q-54 39 -114 107q-11 12 -18 21q-28 36 -83 79z" />
    <glyph glyph-name="logicalnot" unicode="&#xac;" horiz-adv-x="324" 
d="M289 705h35v-35v-48h-35v48h-289v35h289z" />
    <glyph glyph-name="uni00AD" unicode="&#xad;" 
 />
    <glyph glyph-name="registered" unicode="&#xae;" horiz-adv-x="590" 
d="M295.5 665q-97.5 0 -166.5 -69t-69 -166.5t69 -166.5t166.5 -69t166.5 69t69 166.5t-69 166.5t-166.5 69zM295.5 700q111.5 0 191 -79.5t79.5 -191t-79.5 -191t-191 -79.5t-191 79.5t-79.5 191t79.5 191t191 79.5zM332 333l-21 48q-4 9 -12 13q-19 -4 -40 -6v-55
q0 -24 11 -36t24 -12l-1 -5q-33 3 -66 3l-61 -3l-1 5q11 0 20.5 12.5t9.5 35.5v187q0 23 -9.5 38.5t-20.5 15.5l1 5q32 -3 61 -3q23 0 45 1.5t33 1.5q49 0 73.5 -22t24.5 -60q0 -54 -53 -84q19 -6 29 -27l23 -53q12 -26 20.5 -37t18.5 -11l-1 -5q-35 3 -62 3l-61 -3l-1 5
q8 0 15 6.5t7 18.5q0 11 -6 23zM259 520v-114q35 8 56.5 32t21.5 59q0 67 -43 67q-17 0 -26 -11.5t-9 -32.5z" />
    <glyph glyph-name="macron" unicode="&#xaf;" horiz-adv-x="353" 
d="M353 705v-17h-353v17h353z" />
    <glyph glyph-name="degree" unicode="&#xb0;" horiz-adv-x="153" 
d="M76.5 781q-25.5 0 -43.5 -18t-18 -43.5t18 -43.5t43.5 -18t43.5 18t18 43.5t-18 43.5t-43.5 18zM76.5 796q31.5 0 54 -22.5t22.5 -54t-22.5 -54t-54 -22.5t-54 22.5t-22.5 54t22.5 54t54 22.5z" />
    <glyph glyph-name="plusminus" unicode="&#xb1;" horiz-adv-x="433" 
d="M408 35v-35h-383v35h383zM199 542h35v-175h174v-34h-174v-175h-35v175h-174v34h174v175z" />
    <glyph glyph-name="uni00B2" unicode="&#xb2;" horiz-adv-x="231" 
d="M56 586l-5 -2q-13 43 -43 85l-4 6q12 0 44.5 12.5t71.5 12.5q51 0 81 -19.5t30 -60.5q0 -28 -23.5 -51t-54 -36t-66 -33.5t-52.5 -42.5h143q25 0 36.5 13.5t11.5 33.5l5 -1q-3 -35 -3 -62l3 -41h-53h-163h-15q0 38 17 67.5t41 48.5t48 36t40.5 39.5t16.5 49.5
q0 44 -50 44q-31 0 -47.5 -17.5t-16.5 -45.5q0 -17 7 -36z" />
    <glyph glyph-name="uni00B3" unicode="&#xb3;" horiz-adv-x="233" 
d="M50 611l-5 -2q-2 18 -31 60l-5 6q14 0 45.5 12.5t62.5 12.5q57 0 84 -18t27 -47t-19.5 -42.5t-55.5 -19.5q80 -14 80 -88q0 -48 -29.5 -67.5t-84.5 -19.5q-38 0 -72.5 12.5t-46.5 12.5q2 2 4 6q12 17 22 36t14 30l4 10l5 -2q-5 -14 -5 -27q0 -27 17.5 -45t47.5 -18
q31 0 46 16t15 53q0 79 -66 79q-13 0 -26 -5t-19 -10l-6 -5l-6 12q11 11 42.5 21.5t53.5 24.5t22 40q0 21 -15 33.5t-41 12.5q-27 0 -44.5 -15t-17.5 -38q0 -11 3 -21z" />
    <glyph glyph-name="acute" unicode="&#xb4;" horiz-adv-x="256" 
d="M12 483l-12 16q4 8 12.5 21.5t36 46.5t57.5 56q16 13 35 33.5t30 34.5l10 14l75 -96q-61 -24 -98 -53q-66 -51 -146 -73z" />
    <glyph glyph-name="mu" unicode="&#xb5;" 
 />
    <glyph glyph-name="paragraph" unicode="&#xb6;" horiz-adv-x="468" 
d="M444 730v-35h-39v-828h-35v828h-49v-828h-35v311q-114 0 -195 80.5t-81 195t81 195.5t195 81h5h30h49h35h39z" />
    <glyph glyph-name="periodcentered" unicode="&#xb7;" horiz-adv-x="149" 
d="M149 350q0 -31 -21.5 -53t-52.5 -22t-53 22t-22 53t22 53t53 22t52.5 -22t21.5 -53z" />
    <glyph glyph-name="cedilla" unicode="&#xb8;" horiz-adv-x="103" 
d="M15 -56l-8 9l25 47h29l-30 -37q7 2 12 2q60 0 60 -49t-57 -49q-41 0 -46 26l4 2q1 -9 10.5 -16t22.5 -7q15 0 25 10.5t10 33.5q0 44 -29 44q-17 0 -25 -20z" />
    <glyph glyph-name="uni00B9" unicode="&#xb9;" horiz-adv-x="122" 
d="M1 655l91 45v-245q0 -23 9 -35.5t21 -12.5l-1 -5q-33 3 -60 3l-60 -3l-1 5q12 0 21 12.5t9 35.5v141q0 30 -7.5 41.5t-22.5 11.5z" />
    <glyph glyph-name="ordmasculine" unicode="&#xba;" horiz-adv-x="283" 
d="M141 685q-37 0 -56 -35.5t-19 -100.5t19 -100.5t56 -35.5t56.5 35.5t19.5 100.5t-19.5 100.5t-56.5 35.5zM141.5 700q67.5 0 104.5 -39t37 -112t-37 -112t-104.5 -39t-104.5 39t-37 112t37 112t104.5 39z" />
    <glyph glyph-name="guillemotright" unicode="&#xbb;" horiz-adv-x="381" 
d="M203 350q-47 -37 -71 -68q-7 -9 -16 -19q-24 -26 -48.5 -49t-37.5 -34l-14 -10l-16 13q43 84 98 154q4 5 9 13q-5 8 -9 13q-25 31 -49.5 69.5t-36.5 61.5l-12 23l16 13q47 -35 100 -93q9 -10 16 -19q24 -31 71 -68zM381 350q-55 -43 -83 -79q-7 -9 -18 -21
q-27 -30 -55.5 -57t-43.5 -38l-15 -12l-19 15q49 97 112 177q5 6 11 15q-6 9 -11 15q-63 80 -112 177l19 15q54 -40 114 -107q11 -12 18 -21q28 -36 83 -79z" />
    <glyph glyph-name="onequarter" unicode="&#xbc;" horiz-adv-x="572" 
d="M519 715l29 -20l-494 -708l-29 20zM67 650l92 46v-247q0 -23 9.5 -35.5t21.5 -12.5l-1 -6q-34 4 -61 4l-61 -4l-1 6q12 0 21.5 12.5t9.5 35.5v142q0 30 -7.5 42t-23.5 12zM299 72h-19l182 231l20 1v-173q33 6 33 27l5 -1q-3 -19 -3 -46l3 -39h-38v-69h-62v69h-121z
M344 129h76v70v26z" />
    <glyph glyph-name="onehalf" unicode="&#xbd;" horiz-adv-x="572" 
d="M67 650l92 46v-247q0 -23 9.5 -35.5t21.5 -12.5l-1 -6q-34 4 -61 4l-61 -4l-1 6q12 0 21.5 12.5t9.5 35.5v142q0 30 -7.5 42t-23.5 12zM519 715l29 -20l-494 -708l-29 20zM371 191l-5 -2q-14 44 -43 86l-5 6q12 0 45.5 12.5t71.5 12.5q51 0 82 -19.5t31 -60.5
q0 -29 -24 -52t-54.5 -36.5t-66.5 -34.5t-53 -42h144q25 0 37 13.5t12 33.5l5 -1q-3 -35 -3 -62l3 -42h-54h-165h-15q0 38 17 68t41.5 49t48.5 36.5t41 40t17 49.5q0 45 -50 45q-31 0 -48 -17.5t-17 -45.5q0 -18 7 -37z" />
    <glyph glyph-name="threequarters" unicode="&#xbe;" horiz-adv-x="572" 
d="M519 715l29 -20l-494 -708l-29 20zM76 608l-5 -2q-2 19 -32 61l-5 6q14 0 46 12.5t63 12.5q58 0 85.5 -18t27.5 -47.5t-20 -42.5t-56 -20q81 -14 81 -89q0 -48 -30 -68t-86 -20q-39 0 -73.5 13t-46.5 13q2 2 4 6q13 17 23 36t13 30l4 11l5 -3q-5 -14 -5 -27q0 -28 18 -46
t49 -18q30 0 45.5 16.5t15.5 53.5q0 79 -67 79q-30 0 -51 -19l-7 12q12 11 43.5 21.5t53.5 24.5t22 40q0 22 -15 34.5t-41 12.5q-28 0 -45.5 -15t-17.5 -39q0 -10 4 -21zM299 72h-19l182 231l20 1v-173q33 6 33 27l5 -1q-3 -19 -3 -46l3 -39h-38v-69h-62v69h-121zM344 129
h76v70v26z" />
    <glyph glyph-name="questiondown" unicode="&#xbf;" horiz-adv-x="534" 
d="M327 497q0 -31 -22 -53t-53 -22t-52.5 22t-21.5 53t21.5 53t52.5 22t53 -22t22 -53zM270 367q0 -33 14.5 -60t37.5 -46t51.5 -36.5t56.5 -35t51.5 -37.5t38 -47.5t14.5 -60.5q0 -47 -20 -82t-56 -55.5t-82 -30t-104 -9.5q-54 0 -98.5 9t-68.5 20t-52 20.5t-53 9.5
q4 5 10 14q68 96 100 199l12 -5q-15 -41 -15 -80q0 -66 38.5 -109t104.5 -44q58 0 91.5 31.5t33.5 90.5q0 46 -14.5 82.5t-35 62t-41 51.5t-35 63.5t-14.5 84.5h35z" />
    <glyph glyph-name="Agrave" unicode="&#xc0;" horiz-adv-x="727" 
d="M471 748q-9 3 -24 7.5t-54 23.5t-68 42q-17 13 -41.5 26.5t-40.5 19.5l-16 7l75 96q38 -53 75 -82q65 -51 106 -124zM330 705h110l196 -580q20 -59 39 -86t43 -27l-3 -12q-80 7 -143 7q-28 0 -66.5 -1.5t-62.5 -3.5l-24 -2l-3 12q28 0 49.5 17t21.5 51q0 20 -9 45
q-56 166 -158 166q-63 0 -108 -42.5t-79 -127.5q-10 -26 -10 -46q0 -33 22.5 -48t51.5 -15l-3 -12q-56 7 -95 7l-87 -7l-2 12q24 0 42.5 24.5t42.5 84.5zM212 317q36 23 82 23q76 0 126 -43l-99 292z" />
    <glyph glyph-name="Aacute" unicode="&#xc1;" horiz-adv-x="727" 
d="M327 766l-12 16q4 8 12.5 21.5t36 46.5t57.5 56q16 13 35 33.5t30 34.5l10 14l75 -96q-61 -24 -98 -53q-66 -51 -146 -73zM330 705h110l196 -580q20 -59 39 -86t43 -27l-3 -12q-80 7 -143 7q-28 0 -66.5 -1.5t-62.5 -3.5l-24 -2l-3 12q28 0 49.5 17t21.5 51q0 20 -9 45
q-56 166 -158 166q-63 0 -108 -42.5t-79 -127.5q-10 -26 -10 -46q0 -33 22.5 -48t51.5 -15l-3 -12q-56 7 -95 7l-87 -7l-2 12q24 0 42.5 24.5t42.5 84.5zM212 317q36 23 82 23q76 0 126 -43l-99 292z" />
    <glyph glyph-name="Acircumflex" unicode="&#xc2;" horiz-adv-x="727" 
d="M385 958q35 -45 64 -68q9 -7 18 -15q25 -22 47 -45.5t32 -36.5l9 -12l-12 -16q-80 41 -146 93q-5 4 -12 8q-7 -4 -13 -8q-66 -52 -146 -93l-12 16q33 44 88 94q10 9 18 15q29 23 65 68zM330 705h110l196 -580q20 -59 39 -86t43 -27l-3 -12q-80 7 -143 7q-28 0 -66.5 -1.5
t-62.5 -3.5l-24 -2l-3 12q28 0 49.5 17t21.5 51q0 20 -9 45q-56 166 -158 166q-63 0 -108 -42.5t-79 -127.5q-10 -26 -10 -46q0 -33 22.5 -48t51.5 -15l-3 -12q-56 7 -95 7l-87 -7l-2 12q24 0 42.5 24.5t42.5 84.5zM212 317q36 23 82 23q76 0 126 -43l-99 292z" />
    <glyph glyph-name="Atilde" unicode="&#xc3;" horiz-adv-x="727" 
d="M556 832l5 -17q-56 -50 -88 -50q-33 0 -95.5 21t-96.5 21q-11 0 -28 -5.5t-29 -11.5l-11 -5l-5 17q6 6 16 14t34 22t38 14q34 0 96.5 -21t95.5 -21q12 0 29 5.5t28 10.5zM330 705h110l196 -580q20 -59 39 -86t43 -27l-3 -12q-80 7 -143 7q-28 0 -66.5 -1.5t-62.5 -3.5
l-24 -2l-3 12q28 0 49.5 17t21.5 51q0 20 -9 45q-56 166 -158 166q-63 0 -108 -42.5t-79 -127.5q-10 -26 -10 -46q0 -33 22.5 -48t51.5 -15l-3 -12q-56 7 -95 7l-87 -7l-2 12q24 0 42.5 24.5t42.5 84.5zM212 317q36 23 82 23q76 0 126 -43l-99 292z" />
    <glyph glyph-name="Adieresis" unicode="&#xc4;" horiz-adv-x="727" 
d="M527 836q0 -26 -18 -44.5t-44.5 -18.5t-44.5 18.5t-18 44.5t18 44.5t44.5 18.5t44.5 -18.5t18 -44.5zM362 836q0 -26 -18.5 -44.5t-44.5 -18.5t-44.5 18.5t-18.5 44.5t18.5 44.5t44.5 18.5t44.5 -18.5t18.5 -44.5zM330 705h110l196 -580q20 -59 39 -86t43 -27l-3 -12
q-80 7 -143 7q-28 0 -66.5 -1.5t-62.5 -3.5l-24 -2l-3 12q28 0 49.5 17t21.5 51q0 20 -9 45q-56 166 -158 166q-63 0 -108 -42.5t-79 -127.5q-10 -26 -10 -46q0 -33 22.5 -48t51.5 -15l-3 -12q-56 7 -95 7l-87 -7l-2 12q24 0 42.5 24.5t42.5 84.5zM212 317q36 23 82 23
q76 0 126 -43l-99 292z" />
    <glyph glyph-name="Aring" unicode="&#xc5;" horiz-adv-x="727" 
d="M384.5 892q-25.5 0 -43.5 -18t-18 -43.5t18 -43.5t43.5 -18t43.5 18t18 43.5t-18 43.5t-43.5 18zM384.5 907q31.5 0 54 -22.5t22.5 -54t-22.5 -54t-54 -22.5t-54 22.5t-22.5 54t22.5 54t54 22.5zM330 705h110l196 -580q20 -59 39 -86t43 -27l-3 -12q-80 7 -143 7
q-28 0 -66.5 -1.5t-62.5 -3.5l-24 -2l-3 12q28 0 49.5 17t21.5 51q0 20 -9 45q-56 166 -158 166q-63 0 -108 -42.5t-79 -127.5q-10 -26 -10 -46q0 -33 22.5 -48t51.5 -15l-3 -12q-56 7 -95 7l-87 -7l-2 12q24 0 42.5 24.5t42.5 84.5zM212 317q36 23 82 23q76 0 126 -43
l-99 292z" />
    <glyph glyph-name="AE" unicode="&#xc6;" 
 />
    <glyph glyph-name="Ccedilla" unicode="&#xc7;" horiz-adv-x="657" 
d="M323 -57l-8 9l25 47h29l-30 -37q7 2 12 2q60 0 60 -49t-57 -49q-41 0 -46 26l4 2q1 -9 10.5 -16t22.5 -7q15 0 25 10.5t10 33.5q0 44 -29 44q-17 0 -25 -20zM505 400q15 41 15 83q0 77 -44.5 132t-110.5 55q-87 0 -136.5 -85.5t-49.5 -234.5q0 -155 51.5 -237.5
t144.5 -82.5q82 0 155.5 63t92.5 135l25 -11q-24 -89 -106 -155.5t-187 -66.5q-330 0 -330 355q0 170 90.5 262.5t249.5 92.5q54 0 99 -9.5t69.5 -20.5t52.5 -20t53 -9q-4 -5 -10 -14q-31 -43 -59 -102.5t-41 -96.5l-12 -38z" />
    <glyph glyph-name="Egrave" unicode="&#xc8;" horiz-adv-x="622" 
d="M381 743q-9 3 -24 7.5t-54 23.5t-68 42q-17 13 -41.5 26.5t-40.5 19.5l-16 7l75 96q38 -53 75 -82q65 -51 106 -124zM381 35q87 0 137 61.5t82 181.5l13 -3q-5 -15 -13 -41.5t-20.5 -94.5t-12.5 -122l1 -17q-27 0 -154.5 4t-237.5 4l-144 -8l-2 12q27 0 49 29.5t22 83.5
v437q0 54 -22.5 90t-48.5 36l2 12q88 -7 144 -7l367 7q-1 -7 -1 -17q0 -54 11 -106t21 -77l11 -26l-12 -2q-5 17 -15 39.5t-28.5 50t-40.5 50t-52.5 38t-63.5 15.5q-63 0 -92.5 -30.5t-30.5 -74.5v-33.5v-83v-76.5q48 1 77.5 5.5t50.5 17.5t33 28.5t28 46.5l13 -3
q-5 -7 -12 -19t-18.5 -48t-11.5 -70q0 -64 25 -152l-13 -3q-12 45 -24 73t-31 49.5t-47.5 31t-69.5 9.5v-191q1 -51 30.5 -79t100.5 -28z" />
    <glyph glyph-name="Eacute" unicode="&#xc9;" horiz-adv-x="622" 
d="M237 761l-12 16q4 8 12.5 21.5t36 46.5t57.5 56q16 13 35 33.5t30 34.5l10 14l75 -96q-61 -24 -98 -53q-66 -51 -146 -73zM381 35q87 0 137 61.5t82 181.5l13 -3q-5 -15 -13 -41.5t-20.5 -94.5t-12.5 -122l1 -17q-27 0 -154.5 4t-237.5 4l-144 -8l-2 12q27 0 49 29.5
t22 83.5v437q0 54 -22.5 90t-48.5 36l2 12q88 -7 144 -7l367 7q-1 -7 -1 -17q0 -54 11 -106t21 -77l11 -26l-12 -2q-5 17 -15 39.5t-28.5 50t-40.5 50t-52.5 38t-63.5 15.5q-63 0 -92.5 -30.5t-30.5 -74.5v-33.5v-83v-76.5q48 1 77.5 5.5t50.5 17.5t33 28.5t28 46.5l13 -3
q-5 -7 -12 -19t-18.5 -48t-11.5 -70q0 -64 25 -152l-13 -3q-12 45 -24 73t-31 49.5t-47.5 31t-69.5 9.5v-191q1 -51 30.5 -79t100.5 -28z" />
    <glyph glyph-name="Ecircumflex" unicode="&#xca;" horiz-adv-x="622" 
d="M288 958q35 -45 64 -68q9 -7 18 -15q25 -22 47 -45.5t32 -36.5l9 -12l-12 -16q-80 41 -146 93q-5 4 -12 8q-7 -4 -13 -8q-66 -52 -146 -93l-12 16q33 44 88 94q10 9 18 15q29 23 65 68zM381 35q87 0 137 61.5t82 181.5l13 -3q-5 -15 -13 -41.5t-20.5 -94.5t-12.5 -122
l1 -17q-27 0 -154.5 4t-237.5 4l-144 -8l-2 12q27 0 49 29.5t22 83.5v437q0 54 -22.5 90t-48.5 36l2 12q88 -7 144 -7l367 7q-1 -7 -1 -17q0 -54 11 -106t21 -77l11 -26l-12 -2q-5 17 -15 39.5t-28.5 50t-40.5 50t-52.5 38t-63.5 15.5q-63 0 -92.5 -30.5t-30.5 -74.5v-33.5
v-83v-76.5q48 1 77.5 5.5t50.5 17.5t33 28.5t28 46.5l13 -3q-5 -7 -12 -19t-18.5 -48t-11.5 -70q0 -64 25 -152l-13 -3q-12 45 -24 73t-31 49.5t-47.5 31t-69.5 9.5v-191q1 -51 30.5 -79t100.5 -28z" />
    <glyph glyph-name="Edieresis" unicode="&#xcb;" horiz-adv-x="622" 
d="M437 831q0 -26 -18 -44.5t-44.5 -18.5t-44.5 18.5t-18 44.5t18 44.5t44.5 18.5t44.5 -18.5t18 -44.5zM272 831q0 -26 -18.5 -44.5t-44.5 -18.5t-44.5 18.5t-18.5 44.5t18.5 44.5t44.5 18.5t44.5 -18.5t18.5 -44.5zM381 35q87 0 137 61.5t82 181.5l13 -3q-5 -15 -13 -41.5
t-20.5 -94.5t-12.5 -122l1 -17q-27 0 -154.5 4t-237.5 4l-144 -8l-2 12q27 0 49 29.5t22 83.5v437q0 54 -22.5 90t-48.5 36l2 12q88 -7 144 -7l367 7q-1 -7 -1 -17q0 -54 11 -106t21 -77l11 -26l-12 -2q-5 17 -15 39.5t-28.5 50t-40.5 50t-52.5 38t-63.5 15.5
q-63 0 -92.5 -30.5t-30.5 -74.5v-33.5v-83v-76.5q48 1 77.5 5.5t50.5 17.5t33 28.5t28 46.5l13 -3q-5 -7 -12 -19t-18.5 -48t-11.5 -70q0 -64 25 -152l-13 -3q-12 45 -24 73t-31 49.5t-47.5 31t-69.5 9.5v-191q1 -51 30.5 -79t100.5 -28z" />
    <glyph glyph-name="Igrave" unicode="&#xcc;" horiz-adv-x="351" 
d="M262 743q-9 3 -24 7.5t-54 23.5t-68 42q-17 13 -41.5 26.5t-40.5 19.5l-16 7l75 96q38 -53 75 -82q65 -51 106 -124zM32 700q77 -7 144 -7q29 0 65 1.5t57 3.5l21 2l2 -12q-26 0 -48.5 -36t-22.5 -90v-437q0 -54 22 -83.5t49 -29.5l-2 -12q-80 8 -143 8l-144 -8l-2 12
q27 0 49 29.5t22 83.5v437q0 54 -22.5 90t-48.5 36z" />
    <glyph glyph-name="Iacute" unicode="&#xcd;" horiz-adv-x="351" 
d="M118 761l-12 16q4 8 12.5 21.5t36 46.5t57.5 56q16 13 35 33.5t30 34.5l10 14l75 -96q-61 -24 -98 -53q-66 -51 -146 -73zM32 700q77 -7 144 -7q29 0 65 1.5t57 3.5l21 2l2 -12q-26 0 -48.5 -36t-22.5 -90v-437q0 -54 22 -83.5t49 -29.5l-2 -12q-80 8 -143 8l-144 -8
l-2 12q27 0 49 29.5t22 83.5v437q0 54 -22.5 90t-48.5 36z" />
    <glyph glyph-name="Icircumflex" unicode="&#xce;" horiz-adv-x="351" 
d="M176 958q35 -45 64 -68q9 -7 18 -15q25 -22 47 -45.5t32 -36.5l9 -12l-12 -16q-80 41 -146 93q-5 4 -12 8q-7 -4 -13 -8q-66 -52 -146 -93l-12 16q33 44 88 94q10 9 18 15q29 23 65 68zM32 700q77 -7 144 -7q29 0 65 1.5t57 3.5l21 2l2 -12q-26 0 -48.5 -36t-22.5 -90
v-437q0 -54 22 -83.5t49 -29.5l-2 -12q-80 8 -143 8l-144 -8l-2 12q27 0 49 29.5t22 83.5v437q0 54 -22.5 90t-48.5 36z" />
    <glyph glyph-name="Idieresis" unicode="&#xcf;" horiz-adv-x="351" 
d="M318 831q0 -26 -18 -44.5t-44.5 -18.5t-44.5 18.5t-18 44.5t18 44.5t44.5 18.5t44.5 -18.5t18 -44.5zM153 831q0 -26 -18.5 -44.5t-44.5 -18.5t-44.5 18.5t-18.5 44.5t18.5 44.5t44.5 18.5t44.5 -18.5t18.5 -44.5zM32 700q77 -7 144 -7q29 0 65 1.5t57 3.5l21 2l2 -12
q-26 0 -48.5 -36t-22.5 -90v-437q0 -54 22 -83.5t49 -29.5l-2 -12q-80 8 -143 8l-144 -8l-2 12q27 0 49 29.5t22 83.5v437q0 54 -22.5 90t-48.5 36z" />
    <glyph glyph-name="Eth" unicode="&#xd0;" 
 />
    <glyph glyph-name="Ntilde" unicode="&#xd1;" horiz-adv-x="696" 
d="M519 832l5 -17q-56 -50 -88 -50q-33 0 -95.5 21t-96.5 21q-11 0 -28 -5.5t-29 -11.5l-11 -5l-5 17q6 6 16 14t34 22t38 14q34 0 96.5 -21t95.5 -21q12 0 29 5.5t28 10.5zM32 700q47 -7 87 -7q22 0 53 3l388 -463v331q0 60 -23 92t-55 32l2 12q54 -7 94 -7l86 7l2 -12
q-26 0 -48.5 -34.5t-22.5 -89.5v-443q0 -53 21.5 -81t49.5 -28l-2 -12q-47 8 -86 8q-10 0 -23 -1l-419 500v-386q0 -59 22 -84t56 -25l-2 -12q-54 8 -93 8q-18 0 -39.5 -2t-34.5 -4l-13 -2l-2 12q28 0 49.5 28t21.5 81v443q0 55 -22.5 89.5t-48.5 34.5z" />
    <glyph glyph-name="Ograve" unicode="&#xd2;" horiz-adv-x="714" 
d="M445 748q-9 3 -24 7.5t-54 23.5t-68 42q-17 13 -41.5 26.5t-40.5 19.5l-16 7l75 96q38 -53 75 -82q65 -51 106 -124zM357 670q-87 0 -132.5 -83t-45.5 -237t45.5 -237t132.5 -83t132.5 83t45.5 237t-45.5 237t-132.5 83zM357 705q158 0 245.5 -92t87.5 -263t-87.5 -263
t-245.5 -92t-245 92t-87 263t87 263t245 92z" />
    <glyph glyph-name="Oacute" unicode="&#xd3;" horiz-adv-x="714" 
d="M301 766l-12 16q4 8 12.5 21.5t36 46.5t57.5 56q16 13 35 33.5t30 34.5l10 14l75 -96q-61 -24 -98 -53q-66 -51 -146 -73zM357 670q-87 0 -132.5 -83t-45.5 -237t45.5 -237t132.5 -83t132.5 83t45.5 237t-45.5 237t-132.5 83zM357 705q158 0 245.5 -92t87.5 -263
t-87.5 -263t-245.5 -92t-245 92t-87 263t87 263t245 92z" />
    <glyph glyph-name="Ocircumflex" unicode="&#xd4;" horiz-adv-x="714" 
d="M358 958q35 -45 64 -68q9 -7 18 -15q25 -22 47 -45.5t32 -36.5l9 -12l-12 -16q-80 41 -146 93q-5 4 -12 8q-7 -4 -13 -8q-66 -52 -146 -93l-12 16q33 44 88 94q10 9 18 15q29 23 65 68zM357 670q-87 0 -132.5 -83t-45.5 -237t45.5 -237t132.5 -83t132.5 83t45.5 237
t-45.5 237t-132.5 83zM357 705q158 0 245.5 -92t87.5 -263t-87.5 -263t-245.5 -92t-245 92t-87 263t87 263t245 92z" />
    <glyph glyph-name="Otilde" unicode="&#xd5;" horiz-adv-x="714" 
d="M529 832l5 -17q-56 -50 -88 -50q-33 0 -95.5 21t-96.5 21q-11 0 -28 -5.5t-29 -11.5l-11 -5l-5 17q6 6 16 14t34 22t38 14q34 0 96.5 -21t95.5 -21q12 0 29 5.5t28 10.5zM357 670q-87 0 -132.5 -83t-45.5 -237t45.5 -237t132.5 -83t132.5 83t45.5 237t-45.5 237
t-132.5 83zM357 705q158 0 245.5 -92t87.5 -263t-87.5 -263t-245.5 -92t-245 92t-87 263t87 263t245 92z" />
    <glyph glyph-name="Odieresis" unicode="&#xd6;" horiz-adv-x="714" 
d="M501 836q0 -26 -18 -44.5t-44.5 -18.5t-44.5 18.5t-18 44.5t18 44.5t44.5 18.5t44.5 -18.5t18 -44.5zM336 836q0 -26 -18.5 -44.5t-44.5 -18.5t-44.5 18.5t-18.5 44.5t18.5 44.5t44.5 18.5t44.5 -18.5t18.5 -44.5zM357 670q-87 0 -132.5 -83t-45.5 -237t45.5 -237
t132.5 -83t132.5 83t45.5 237t-45.5 237t-132.5 83zM357 705q158 0 245.5 -92t87.5 -263t-87.5 -263t-245.5 -92t-245 92t-87 263t87 263t245 92z" />
    <glyph glyph-name="multiply" unicode="&#xd7;" horiz-adv-x="345" 
d="M50 203l-25 24l123 123l-123 124l25 24l123 -123l123 123l25 -24l-124 -124l124 -123l-25 -24l-123 123z" />
    <glyph glyph-name="Oslash" unicode="&#xd8;" horiz-adv-x="714" 
d="M574 719l29 -19l-35 -56q121 -90 121 -294q0 -171 -87 -263t-245 -92q-103 0 -176 40l-41 -64l-29 19l40 63q-126 90 -126 297q0 171 87 263t245 92q106 0 181 -42zM357 670q-87 0 -132.5 -83t-45.5 -237q0 -126 31 -205l280 441q-46 84 -133 84zM507 548l-280 -440
q46 -78 130 -78q87 0 132.5 83.5t45.5 236.5q0 121 -28 198z" />
    <glyph glyph-name="Ugrave" unicode="&#xd9;" horiz-adv-x="707" 
d="M501 742q-9 3 -24 7.5t-54 23.5t-68 42q-17 13 -41.5 26.5t-40.5 19.5l-16 7l75 96q38 -53 75 -82q65 -51 106 -124zM42 700q77 -7 144 -7q29 0 67 1.5t61 3.5l22 2l3 -12q-32 0 -55.5 -33t-23.5 -93v-359q0 -87 36 -130t118 -43q66 0 106.5 47.5t40.5 127.5v359
q0 60 -23 92t-55 32l2 12q54 -7 94 -7q17 0 38.5 1.5t34.5 3.5l13 2l2 -12q-26 0 -48.5 -34.5t-22.5 -89.5v-326q0 -243 -225 -243q-122 0 -191 62.5t-69 180.5v324q0 54 -22.5 90t-48.5 36z" />
    <glyph glyph-name="Uacute" unicode="&#xda;" horiz-adv-x="707" 
d="M357 760l-12 16q4 8 12.5 21.5t36 46.5t57.5 56q16 13 35 33.5t30 34.5l10 14l75 -96q-61 -24 -98 -53q-66 -51 -146 -73zM42 700q77 -7 144 -7q29 0 67 1.5t61 3.5l22 2l3 -12q-32 0 -55.5 -33t-23.5 -93v-359q0 -87 36 -130t118 -43q66 0 106.5 47.5t40.5 127.5v359
q0 60 -23 92t-55 32l2 12q54 -7 94 -7q17 0 38.5 1.5t34.5 3.5l13 2l2 -12q-26 0 -48.5 -34.5t-22.5 -89.5v-326q0 -243 -225 -243q-122 0 -191 62.5t-69 180.5v324q0 54 -22.5 90t-48.5 36z" />
    <glyph glyph-name="Ucircumflex" unicode="&#xdb;" horiz-adv-x="707" 
d="M354 958q35 -45 64 -68q9 -7 18 -15q25 -22 47 -45.5t32 -36.5l9 -12l-12 -16q-80 41 -146 93q-5 4 -12 8q-7 -4 -13 -8q-66 -52 -146 -93l-12 16q33 44 88 94q10 9 18 15q29 23 65 68zM42 700q77 -7 144 -7q29 0 67 1.5t61 3.5l22 2l3 -12q-32 0 -55.5 -33t-23.5 -93
v-359q0 -87 36 -130t118 -43q66 0 106.5 47.5t40.5 127.5v359q0 60 -23 92t-55 32l2 12q54 -7 94 -7q17 0 38.5 1.5t34.5 3.5l13 2l2 -12q-26 0 -48.5 -34.5t-22.5 -89.5v-326q0 -243 -225 -243q-122 0 -191 62.5t-69 180.5v324q0 54 -22.5 90t-48.5 36z" />
    <glyph glyph-name="Udieresis" unicode="&#xdc;" horiz-adv-x="707" 
d="M557 830q0 -26 -18 -44.5t-44.5 -18.5t-44.5 18.5t-18 44.5t18 44.5t44.5 18.5t44.5 -18.5t18 -44.5zM392 830q0 -26 -18.5 -44.5t-44.5 -18.5t-44.5 18.5t-18.5 44.5t18.5 44.5t44.5 18.5t44.5 -18.5t18.5 -44.5zM42 700q77 -7 144 -7q29 0 67 1.5t61 3.5l22 2l3 -12
q-32 0 -55.5 -33t-23.5 -93v-359q0 -87 36 -130t118 -43q66 0 106.5 47.5t40.5 127.5v359q0 60 -23 92t-55 32l2 12q54 -7 94 -7q17 0 38.5 1.5t34.5 3.5l13 2l2 -12q-26 0 -48.5 -34.5t-22.5 -89.5v-326q0 -243 -225 -243q-122 0 -191 62.5t-69 180.5v324q0 54 -22.5 90
t-48.5 36z" />
    <glyph glyph-name="Yacute" unicode="&#xdd;" horiz-adv-x="653" 
d="M262 759l-12 16q4 8 12.5 21.5t36 46.5t57.5 56q16 13 35 33.5t30 34.5l10 14l75 -96q-61 -24 -98 -53q-66 -51 -146 -73zM510 564q16 33 16 60q0 30 -19.5 47t-47.5 17l3 12q53 -7 93 -7l86 7l3 -12q-8 0 -15.5 -3.5t-15.5 -13t-14 -17t-16 -25.5t-15.5 -28.5
t-18.5 -36.5l-130 -256v-183q0 -54 21.5 -83.5t49.5 -29.5l-3 -12q-80 8 -143 8l-143 -8l-3 12q28 0 49.5 29.5t21.5 83.5v146l-160 291q-3 5 -9 16q-23 42 -34 60.5t-26.5 34t-29.5 15.5l2 12q77 -7 144 -7l150 7l3 -12q-24 0 -39 -12.5t-15 -37.5q0 -31 24 -76l119 -216z
" />
    <glyph glyph-name="Thorn" unicode="&#xde;" 
 />
    <glyph glyph-name="germandbls" unicode="&#xdf;" horiz-adv-x="661" 
d="M121 482q0 107 60.5 162.5t182.5 55.5q101 0 154.5 -39t53.5 -114q0 -49 -32 -95t-89 -79q87 -19 131.5 -65.5t44.5 -113.5q0 -49 -21 -88t-54.5 -61t-70 -33.5t-73.5 -11.5q-74 0 -74 2v35q11 -2 24 -2q53 0 83.5 37.5t30.5 108.5q0 76 -40 111.5t-98 35.5v56
q40 26 62 69t22 95q0 60 -21 88.5t-56.5 28.5t-53 -28.5t-17.5 -74.5v-105v-332v-118h-74q-28 0 -64 -1.5t-58 -3.5l-22 -2l-2 12q27 0 49 29.5t22 83.5v357z" />
    <glyph glyph-name="agrave" unicode="&#xe0;" horiz-adv-x="727" 
d="M448 719q-9 3 -24 7.5t-54 23.5t-68 42q-17 13 -41.5 26.5t-40.5 19.5l-16 7l75 96q38 -53 75 -82q65 -51 106 -124zM330 705h110l196 -580q20 -59 39 -86t43 -27l-3 -12q-80 7 -143 7q-28 0 -66.5 -1.5t-62.5 -3.5l-24 -2l-3 12q28 0 49.5 17t21.5 51q0 20 -9 45
q-56 166 -158 166q-63 0 -108 -42.5t-79 -127.5q-10 -26 -10 -46q0 -33 22.5 -48t51.5 -15l-3 -12q-56 7 -95 7l-87 -7l-2 12q24 0 42.5 24.5t42.5 84.5zM212 317q36 23 82 23q76 0 126 -43l-99 292z" />
    <glyph glyph-name="aacute" unicode="&#xe1;" horiz-adv-x="727" 
d="M304 731l-12 16q4 8 12.5 21.5t36 46.5t57.5 56q16 13 35 33.5t30 34.5l10 14l75 -96q-61 -24 -98 -53q-66 -51 -146 -73zM330 705h110l196 -580q20 -59 39 -86t43 -27l-3 -12q-80 7 -143 7q-28 0 -66.5 -1.5t-62.5 -3.5l-24 -2l-3 12q28 0 49.5 17t21.5 51q0 20 -9 45
q-56 166 -158 166q-63 0 -108 -42.5t-79 -127.5q-10 -26 -10 -46q0 -33 22.5 -48t51.5 -15l-3 -12q-56 7 -95 7l-87 -7l-2 12q24 0 42.5 24.5t42.5 84.5zM212 317q36 23 82 23q76 0 126 -43l-99 292z" />
    <glyph glyph-name="acircumflex" unicode="&#xe2;" horiz-adv-x="727" 
d="M364 928q35 -45 64 -68q9 -7 18 -15q25 -22 47 -45.5t32 -36.5l9 -12l-12 -16q-80 41 -146 93q-5 4 -12 8q-7 -4 -13 -8q-66 -52 -146 -93l-12 16q33 44 88 94q10 9 18 15q29 23 65 68zM330 705h110l196 -580q20 -59 39 -86t43 -27l-3 -12q-80 7 -143 7q-28 0 -66.5 -1.5
t-62.5 -3.5l-24 -2l-3 12q28 0 49.5 17t21.5 51q0 20 -9 45q-56 166 -158 166q-63 0 -108 -42.5t-79 -127.5q-10 -26 -10 -46q0 -33 22.5 -48t51.5 -15l-3 -12q-56 7 -95 7l-87 -7l-2 12q24 0 42.5 24.5t42.5 84.5zM212 317q36 23 82 23q76 0 126 -43l-99 292z" />
    <glyph glyph-name="atilde" unicode="&#xe3;" horiz-adv-x="727" 
d="M535 802l5 -17q-56 -50 -88 -50q-33 0 -95.5 21t-96.5 21q-11 0 -28 -5.5t-29 -11.5l-11 -5l-5 17q6 6 16 14t34 22t38 14q34 0 96.5 -21t95.5 -21q12 0 29 5.5t28 10.5zM330 705h110l196 -580q20 -59 39 -86t43 -27l-3 -12q-80 7 -143 7q-28 0 -66.5 -1.5t-62.5 -3.5
l-24 -2l-3 12q28 0 49.5 17t21.5 51q0 20 -9 45q-56 166 -158 166q-63 0 -108 -42.5t-79 -127.5q-10 -26 -10 -46q0 -33 22.5 -48t51.5 -15l-3 -12q-56 7 -95 7l-87 -7l-2 12q24 0 42.5 24.5t42.5 84.5zM212 317q36 23 82 23q76 0 126 -43l-99 292z" />
    <glyph glyph-name="adieresis" unicode="&#xe4;" horiz-adv-x="727" 
d="M505 801q0 -26 -18 -44.5t-44.5 -18.5t-44.5 18.5t-18 44.5t18 44.5t44.5 18.5t44.5 -18.5t18 -44.5zM340 801q0 -26 -18.5 -44.5t-44.5 -18.5t-44.5 18.5t-18.5 44.5t18.5 44.5t44.5 18.5t44.5 -18.5t18.5 -44.5zM330 705h110l196 -580q20 -59 39 -86t43 -27l-3 -12
q-80 7 -143 7q-28 0 -66.5 -1.5t-62.5 -3.5l-24 -2l-3 12q28 0 49.5 17t21.5 51q0 20 -9 45q-56 166 -158 166q-63 0 -108 -42.5t-79 -127.5q-10 -26 -10 -46q0 -33 22.5 -48t51.5 -15l-3 -12q-56 7 -95 7l-87 -7l-2 12q24 0 42.5 24.5t42.5 84.5zM212 317q36 23 82 23
q76 0 126 -43l-99 292z" />
    <glyph glyph-name="aring" unicode="&#xe5;" horiz-adv-x="727" 
d="M363.5 873q-25.5 0 -43.5 -18t-18 -43.5t18 -43.5t43.5 -18t43.5 18t18 43.5t-18 43.5t-43.5 18zM363.5 888q31.5 0 54 -22.5t22.5 -54t-22.5 -54t-54 -22.5t-54 22.5t-22.5 54t22.5 54t54 22.5zM330 705h110l196 -580q20 -59 39 -86t43 -27l-3 -12q-80 7 -143 7
q-28 0 -66.5 -1.5t-62.5 -3.5l-24 -2l-3 12q28 0 49.5 17t21.5 51q0 20 -9 45q-56 166 -158 166q-63 0 -108 -42.5t-79 -127.5q-10 -26 -10 -46q0 -33 22.5 -48t51.5 -15l-3 -12q-56 7 -95 7l-87 -7l-2 12q24 0 42.5 24.5t42.5 84.5zM212 317q36 23 82 23q76 0 126 -43
l-99 292z" />
    <glyph glyph-name="ae" unicode="&#xe6;" 
 />
    <glyph glyph-name="ccedilla" unicode="&#xe7;" horiz-adv-x="655" 
d="M303 -56l-8 9l25 47h29l-30 -37q7 2 12 2q60 0 60 -49t-57 -49q-41 0 -46 26l4 2q1 -9 10.5 -16t22.5 -7q15 0 25 10.5t10 33.5q0 44 -29 44q-17 0 -25 -20zM504 400q15 41 15 83q0 77 -44.5 132t-110.5 55q-87 0 -136.5 -85.5t-49.5 -234.5q0 -155 51.5 -237.5
t144.5 -82.5q82 0 155.5 63t92.5 135l25 -11q-24 -89 -106 -155.5t-187 -66.5q-330 0 -330 355q0 170 90.5 262.5t249.5 92.5q54 0 99 -9.5t69.5 -20.5t52.5 -20t53 -9q-4 -5 -10 -14q-31 -43 -59 -102.5t-41 -96.5l-12 -38z" />
    <glyph glyph-name="egrave" unicode="&#xe8;" horiz-adv-x="622" 
d="M384 713q-9 3 -24 7.5t-54 23.5t-68 42q-17 13 -41.5 26.5t-40.5 19.5l-16 7l75 96q38 -53 75 -82q65 -51 106 -124zM381 35q87 0 137 61.5t82 181.5l13 -3q-5 -15 -13 -41.5t-20.5 -94.5t-12.5 -122l1 -17q-27 0 -154.5 4t-237.5 4l-144 -8l-2 12q27 0 49 29.5t22 83.5
v437q0 54 -22.5 90t-48.5 36l2 12q88 -7 144 -7l367 7q-1 -7 -1 -17q0 -54 11 -106t21 -77l11 -26l-12 -2q-5 17 -15 39.5t-28.5 50t-40.5 50t-52.5 38t-63.5 15.5q-63 0 -92.5 -30.5t-30.5 -74.5v-33.5v-83v-76.5q48 1 77.5 5.5t50.5 17.5t33 28.5t28 46.5l13 -3
q-5 -7 -12 -19t-18.5 -48t-11.5 -70q0 -64 25 -152l-13 -3q-12 45 -24 73t-31 49.5t-47.5 31t-69.5 9.5v-191q1 -51 30.5 -79t100.5 -28z" />
    <glyph glyph-name="eacute" unicode="&#xe9;" horiz-adv-x="622" 
d="M240 731l-12 16q4 8 12.5 21.5t36 46.5t57.5 56q16 13 35 33.5t30 34.5l10 14l75 -96q-61 -24 -98 -53q-66 -51 -146 -73zM381 35q87 0 137 61.5t82 181.5l13 -3q-5 -15 -13 -41.5t-20.5 -94.5t-12.5 -122l1 -17q-27 0 -154.5 4t-237.5 4l-144 -8l-2 12q27 0 49 29.5
t22 83.5v437q0 54 -22.5 90t-48.5 36l2 12q88 -7 144 -7l367 7q-1 -7 -1 -17q0 -54 11 -106t21 -77l11 -26l-12 -2q-5 17 -15 39.5t-28.5 50t-40.5 50t-52.5 38t-63.5 15.5q-63 0 -92.5 -30.5t-30.5 -74.5v-33.5v-83v-76.5q48 1 77.5 5.5t50.5 17.5t33 28.5t28 46.5l13 -3
q-5 -7 -12 -19t-18.5 -48t-11.5 -70q0 -64 25 -152l-13 -3q-12 45 -24 73t-31 49.5t-47.5 31t-69.5 9.5v-191q1 -51 30.5 -79t100.5 -28z" />
    <glyph glyph-name="ecircumflex" unicode="&#xea;" horiz-adv-x="622" 
d="M272 928q35 -45 64 -68q9 -7 18 -15q25 -22 47 -45.5t32 -36.5l9 -12l-12 -16q-80 41 -146 93q-5 4 -12 8q-7 -4 -13 -8q-66 -52 -146 -93l-12 16q33 44 88 94q10 9 18 15q29 23 65 68zM381 35q87 0 137 61.5t82 181.5l13 -3q-5 -15 -13 -41.5t-20.5 -94.5t-12.5 -122
l1 -17q-27 0 -154.5 4t-237.5 4l-144 -8l-2 12q27 0 49 29.5t22 83.5v437q0 54 -22.5 90t-48.5 36l2 12q88 -7 144 -7l367 7q-1 -7 -1 -17q0 -54 11 -106t21 -77l11 -26l-12 -2q-5 17 -15 39.5t-28.5 50t-40.5 50t-52.5 38t-63.5 15.5q-63 0 -92.5 -30.5t-30.5 -74.5v-33.5
v-83v-76.5q48 1 77.5 5.5t50.5 17.5t33 28.5t28 46.5l13 -3q-5 -7 -12 -19t-18.5 -48t-11.5 -70q0 -64 25 -152l-13 -3q-12 45 -24 73t-31 49.5t-47.5 31t-69.5 9.5v-191q1 -51 30.5 -79t100.5 -28z" />
    <glyph glyph-name="edieresis" unicode="&#xeb;" horiz-adv-x="622" 
d="M441 801q0 -26 -18 -44.5t-44.5 -18.5t-44.5 18.5t-18 44.5t18 44.5t44.5 18.5t44.5 -18.5t18 -44.5zM276 801q0 -26 -18.5 -44.5t-44.5 -18.5t-44.5 18.5t-18.5 44.5t18.5 44.5t44.5 18.5t44.5 -18.5t18.5 -44.5zM381 35q87 0 137 61.5t82 181.5l13 -3q-5 -15 -13 -41.5
t-20.5 -94.5t-12.5 -122l1 -17q-27 0 -154.5 4t-237.5 4l-144 -8l-2 12q27 0 49 29.5t22 83.5v437q0 54 -22.5 90t-48.5 36l2 12q88 -7 144 -7l367 7q-1 -7 -1 -17q0 -54 11 -106t21 -77l11 -26l-12 -2q-5 17 -15 39.5t-28.5 50t-40.5 50t-52.5 38t-63.5 15.5
q-63 0 -92.5 -30.5t-30.5 -74.5v-33.5v-83v-76.5q48 1 77.5 5.5t50.5 17.5t33 28.5t28 46.5l13 -3q-5 -7 -12 -19t-18.5 -48t-11.5 -70q0 -64 25 -152l-13 -3q-12 45 -24 73t-31 49.5t-47.5 31t-69.5 9.5v-191q1 -51 30.5 -79t100.5 -28z" />
    <glyph glyph-name="igrave" unicode="&#xec;" horiz-adv-x="351" 
d="M252 717q-9 3 -24 7.5t-54 23.5t-68 42q-17 13 -41.5 26.5t-40.5 19.5l-16 7l75 96q38 -53 75 -82q65 -51 106 -124zM32 700q77 -7 144 -7q29 0 65 1.5t57 3.5l21 2l2 -12q-26 0 -48.5 -36t-22.5 -90v-437q0 -54 22 -83.5t49 -29.5l-2 -12q-80 8 -143 8l-144 -8l-2 12
q27 0 49 29.5t22 83.5v437q0 54 -22.5 90t-48.5 36z" />
    <glyph glyph-name="iacute" unicode="&#xed;" horiz-adv-x="351" 
d="M108 735l-12 16q4 8 12.5 21.5t36 46.5t57.5 56q16 13 35 33.5t30 34.5l10 14l75 -96q-61 -24 -98 -53q-66 -51 -146 -73zM32 700q77 -7 144 -7q29 0 65 1.5t57 3.5l21 2l2 -12q-26 0 -48.5 -36t-22.5 -90v-437q0 -54 22 -83.5t49 -29.5l-2 -12q-80 8 -143 8l-144 -8
l-2 12q27 0 49 29.5t22 83.5v437q0 54 -22.5 90t-48.5 36z" />
    <glyph glyph-name="icircumflex" unicode="&#xee;" horiz-adv-x="351" 
d="M165 928q35 -45 64 -68q9 -7 18 -15q25 -22 47 -45.5t32 -36.5l9 -12l-12 -16q-80 41 -146 93q-5 4 -12 8q-7 -4 -13 -8q-66 -52 -146 -93l-12 16q33 44 88 94q10 9 18 15q29 23 65 68zM32 700q77 -7 144 -7q29 0 65 1.5t57 3.5l21 2l2 -12q-26 0 -48.5 -36t-22.5 -90
v-437q0 -54 22 -83.5t49 -29.5l-2 -12q-80 8 -143 8l-144 -8l-2 12q27 0 49 29.5t22 83.5v437q0 54 -22.5 90t-48.5 36z" />
    <glyph glyph-name="idieresis" unicode="&#xef;" horiz-adv-x="351" 
d="M307 805q0 -26 -18 -44.5t-44.5 -18.5t-44.5 18.5t-18 44.5t18 44.5t44.5 18.5t44.5 -18.5t18 -44.5zM142 805q0 -26 -18.5 -44.5t-44.5 -18.5t-44.5 18.5t-18.5 44.5t18.5 44.5t44.5 18.5t44.5 -18.5t18.5 -44.5zM32 700q77 -7 144 -7q29 0 65 1.5t57 3.5l21 2l2 -12
q-26 0 -48.5 -36t-22.5 -90v-437q0 -54 22 -83.5t49 -29.5l-2 -12q-80 8 -143 8l-144 -8l-2 12q27 0 49 29.5t22 83.5v437q0 54 -22.5 90t-48.5 36z" />
    <glyph glyph-name="eth" unicode="&#xf0;" 
 />
    <glyph glyph-name="ntilde" unicode="&#xf1;" horiz-adv-x="696" 
d="M501 802l5 -17q-56 -50 -88 -50q-33 0 -95.5 21t-96.5 21q-11 0 -28 -5.5t-29 -11.5l-11 -5l-5 17q6 6 16 14t34 22t38 14q34 0 96.5 -21t95.5 -21q12 0 29 5.5t28 10.5zM32 700q47 -7 87 -7q22 0 53 3l388 -463v331q0 60 -23 92t-55 32l2 12q54 -7 94 -7l86 7l2 -12
q-26 0 -48.5 -34.5t-22.5 -89.5v-443q0 -53 21.5 -81t49.5 -28l-2 -12q-47 8 -86 8q-10 0 -23 -1l-419 500v-386q0 -59 22 -84t56 -25l-2 -12q-54 8 -93 8q-18 0 -39.5 -2t-34.5 -4l-13 -2l-2 12q28 0 49.5 28t21.5 81v443q0 55 -22.5 89.5t-48.5 34.5z" />
    <glyph glyph-name="ograve" unicode="&#xf2;" horiz-adv-x="714" 
d="M427 723q-9 3 -24 7.5t-54 23.5t-68 42q-17 13 -41.5 26.5t-40.5 19.5l-16 7l75 96q38 -53 75 -82q65 -51 106 -124zM357 670q-87 0 -132.5 -83t-45.5 -237t45.5 -237t132.5 -83t132.5 83t45.5 237t-45.5 237t-132.5 83zM357 705q158 0 245.5 -92t87.5 -263t-87.5 -263
t-245.5 -92t-245 92t-87 263t87 263t245 92z" />
    <glyph glyph-name="oacute" unicode="&#xf3;" horiz-adv-x="714" 
d="M283 741l-12 16q4 8 12.5 21.5t36 46.5t57.5 56q16 13 35 33.5t30 34.5l10 14l75 -96q-61 -24 -98 -53q-66 -51 -146 -73zM357 670q-87 0 -132.5 -83t-45.5 -237t45.5 -237t132.5 -83t132.5 83t45.5 237t-45.5 237t-132.5 83zM357 705q158 0 245.5 -92t87.5 -263
t-87.5 -263t-245.5 -92t-245 92t-87 263t87 263t245 92z" />
    <glyph glyph-name="ocircumflex" unicode="&#xf4;" horiz-adv-x="714" 
d="M338 928q35 -45 64 -68q9 -7 18 -15q25 -22 47 -45.5t32 -36.5l9 -12l-12 -16q-80 41 -146 93q-5 4 -12 8q-7 -4 -13 -8q-66 -52 -146 -93l-12 16q33 44 88 94q10 9 18 15q29 23 65 68zM357 670q-87 0 -132.5 -83t-45.5 -237t45.5 -237t132.5 -83t132.5 83t45.5 237
t-45.5 237t-132.5 83zM357 705q158 0 245.5 -92t87.5 -263t-87.5 -263t-245.5 -92t-245 92t-87 263t87 263t245 92z" />
    <glyph glyph-name="otilde" unicode="&#xf5;" horiz-adv-x="714" 
d="M509 802l5 -17q-56 -50 -88 -50q-33 0 -95.5 21t-96.5 21q-11 0 -28 -5.5t-29 -11.5l-11 -5l-5 17q6 6 16 14t34 22t38 14q34 0 96.5 -21t95.5 -21q12 0 29 5.5t28 10.5zM357 670q-87 0 -132.5 -83t-45.5 -237t45.5 -237t132.5 -83t132.5 83t45.5 237t-45.5 237
t-132.5 83zM357 705q158 0 245.5 -92t87.5 -263t-87.5 -263t-245.5 -92t-245 92t-87 263t87 263t245 92z" />
    <glyph glyph-name="odieresis" unicode="&#xf6;" horiz-adv-x="714" 
d="M501 836q0 -26 -18 -44.5t-44.5 -18.5t-44.5 18.5t-18 44.5t18 44.5t44.5 18.5t44.5 -18.5t18 -44.5zM336 836q0 -26 -18.5 -44.5t-44.5 -18.5t-44.5 18.5t-18.5 44.5t18.5 44.5t44.5 18.5t44.5 -18.5t18.5 -44.5zM357 670q-87 0 -132.5 -83t-45.5 -237t45.5 -237
t132.5 -83t132.5 83t45.5 237t-45.5 237t-132.5 83zM357 705q158 0 245.5 -92t87.5 -263t-87.5 -263t-245.5 -92t-245 92t-87 263t87 263t245 92z" />
    <glyph glyph-name="divide" unicode="&#xf7;" horiz-adv-x="433" 
d="M286 228q0 -26 -18.5 -44.5t-44.5 -18.5t-44.5 18.5t-18.5 44.5t18.5 44.5t44.5 18.5t44.5 -18.5t18.5 -44.5zM286 472q0 -26 -18.5 -44.5t-44.5 -18.5t-44.5 18.5t-18.5 44.5t18.5 44.5t44.5 18.5t44.5 -18.5t18.5 -44.5zM408 368v-35h-383v35h383z" />
    <glyph glyph-name="oslash" unicode="&#xf8;" horiz-adv-x="714" 
d="M574 719l29 -19l-35 -56q121 -90 121 -294q0 -171 -87 -263t-245 -92q-103 0 -176 40l-41 -64l-29 19l40 63q-126 90 -126 297q0 171 87 263t245 92q106 0 181 -42zM357 670q-87 0 -132.5 -83t-45.5 -237q0 -126 31 -205l280 441q-46 84 -133 84zM507 548l-280 -440
q46 -78 130 -78q87 0 132.5 83.5t45.5 236.5q0 121 -28 198z" />
    <glyph glyph-name="ugrave" unicode="&#xf9;" horiz-adv-x="707" 
d="M477 713q-9 3 -24 7.5t-54 23.5t-68 42q-17 13 -41.5 26.5t-40.5 19.5l-16 7l75 96q38 -53 75 -82q65 -51 106 -124zM42 700q77 -7 144 -7q29 0 67 1.5t61 3.5l22 2l3 -12q-32 0 -55.5 -33t-23.5 -93v-359q0 -87 36 -130t118 -43q66 0 106.5 47.5t40.5 127.5v359
q0 60 -23 92t-55 32l2 12q54 -7 94 -7q17 0 38.5 1.5t34.5 3.5l13 2l2 -12q-26 0 -48.5 -34.5t-22.5 -89.5v-326q0 -243 -225 -243q-122 0 -191 62.5t-69 180.5v324q0 54 -22.5 90t-48.5 36z" />
    <glyph glyph-name="uacute" unicode="&#xfa;" horiz-adv-x="707" 
d="M333 731l-12 16q4 8 12.5 21.5t36 46.5t57.5 56q16 13 35 33.5t30 34.5l10 14l75 -96q-61 -24 -98 -53q-66 -51 -146 -73zM42 700q77 -7 144 -7q29 0 67 1.5t61 3.5l22 2l3 -12q-32 0 -55.5 -33t-23.5 -93v-359q0 -87 36 -130t118 -43q66 0 106.5 47.5t40.5 127.5v359
q0 60 -23 92t-55 32l2 12q54 -7 94 -7q17 0 38.5 1.5t34.5 3.5l13 2l2 -12q-26 0 -48.5 -34.5t-22.5 -89.5v-326q0 -243 -225 -243q-122 0 -191 62.5t-69 180.5v324q0 54 -22.5 90t-48.5 36z" />
    <glyph glyph-name="ucircumflex" unicode="&#xfb;" horiz-adv-x="707" 
d="M336 928q35 -45 64 -68q9 -7 18 -15q25 -22 47 -45.5t32 -36.5l9 -12l-12 -16q-80 41 -146 93q-5 4 -12 8q-7 -4 -13 -8q-66 -52 -146 -93l-12 16q33 44 88 94q10 9 18 15q29 23 65 68zM42 700q77 -7 144 -7q29 0 67 1.5t61 3.5l22 2l3 -12q-32 0 -55.5 -33t-23.5 -93
v-359q0 -87 36 -130t118 -43q66 0 106.5 47.5t40.5 127.5v359q0 60 -23 92t-55 32l2 12q54 -7 94 -7q17 0 38.5 1.5t34.5 3.5l13 2l2 -12q-26 0 -48.5 -34.5t-22.5 -89.5v-326q0 -243 -225 -243q-122 0 -191 62.5t-69 180.5v324q0 54 -22.5 90t-48.5 36z" />
    <glyph glyph-name="udieresis" unicode="&#xfc;" horiz-adv-x="707" 
d="M533 801q0 -26 -18 -44.5t-44.5 -18.5t-44.5 18.5t-18 44.5t18 44.5t44.5 18.5t44.5 -18.5t18 -44.5zM368 801q0 -26 -18.5 -44.5t-44.5 -18.5t-44.5 18.5t-18.5 44.5t18.5 44.5t44.5 18.5t44.5 -18.5t18.5 -44.5zM42 700q77 -7 144 -7q29 0 67 1.5t61 3.5l22 2l3 -12
q-32 0 -55.5 -33t-23.5 -93v-359q0 -87 36 -130t118 -43q66 0 106.5 47.5t40.5 127.5v359q0 60 -23 92t-55 32l2 12q54 -7 94 -7q17 0 38.5 1.5t34.5 3.5l13 2l2 -12q-26 0 -48.5 -34.5t-22.5 -89.5v-326q0 -243 -225 -243q-122 0 -191 62.5t-69 180.5v324q0 54 -22.5 90
t-48.5 36z" />
    <glyph glyph-name="yacute" unicode="&#xfd;" horiz-adv-x="653" 
d="M319 741l-12 16q4 8 12.5 21.5t36 46.5t57.5 56q16 13 35 33.5t30 34.5l10 14l75 -96q-61 -24 -98 -53q-66 -51 -146 -73zM510 564q16 33 16 60q0 30 -19.5 47t-47.5 17l3 12q53 -7 93 -7l86 7l3 -12q-8 0 -15.5 -3.5t-15.5 -13t-14 -17t-16 -25.5t-15.5 -28.5
t-18.5 -36.5l-130 -256v-183q0 -54 21.5 -83.5t49.5 -29.5l-3 -12q-80 8 -143 8l-143 -8l-3 12q28 0 49.5 29.5t21.5 83.5v146l-160 291q-3 5 -9 16q-23 42 -34 60.5t-26.5 34t-29.5 15.5l2 12q77 -7 144 -7l150 7l3 -12q-24 0 -39 -12.5t-15 -37.5q0 -31 24 -76l119 -216z
" />
    <glyph glyph-name="thorn" unicode="&#xfe;" 
 />
    <glyph glyph-name="ydieresis" unicode="&#xff;" horiz-adv-x="653" 
d="M519 811q0 -26 -18 -44.5t-44.5 -18.5t-44.5 18.5t-18 44.5t18 44.5t44.5 18.5t44.5 -18.5t18 -44.5zM354 811q0 -26 -18.5 -44.5t-44.5 -18.5t-44.5 18.5t-18.5 44.5t18.5 44.5t44.5 18.5t44.5 -18.5t18.5 -44.5zM510 564q16 33 16 60q0 30 -19.5 47t-47.5 17l3 12
q53 -7 93 -7l86 7l3 -12q-8 0 -15.5 -3.5t-15.5 -13t-14 -17t-16 -25.5t-15.5 -28.5t-18.5 -36.5l-130 -256v-183q0 -54 21.5 -83.5t49.5 -29.5l-3 -12q-80 8 -143 8l-143 -8l-3 12q28 0 49.5 29.5t21.5 83.5v146l-160 291q-3 5 -9 16q-23 42 -34 60.5t-26.5 34t-29.5 15.5
l2 12q77 -7 144 -7l150 7l3 -12q-24 0 -39 -12.5t-15 -37.5q0 -31 24 -76l119 -216z" />
    </font>
</defs>
</svg>
